Nebraska (2013)(FullHD 1080)

Download Now

Nebraska (2013)(FullHD 1080)

Original title Nebraska
Year 2013
Length 115 min.
Country United States
Director Alexander Payne
Guion Bob Nelson
Mark Orton Music
Phedon Papamichael Photography (B & W)
Starring Bruce Dern, Will Forte, Stacy Keach, Bob Odenkirk, June Squibb, Missy Doty, Kevin Kunkel, Angela McEwan, Melinda Simonsen
Bona Fide Productions Production
Genre Drama. Comedy | Road Movie. Aging. Family. Dramatic comedy. Country Life (North America)
Synopsis After receiving a "prize" in the mail, Woody Grant, an old man with symptoms of dementia, believed to have become rich and forces his suspicious son David on a journey to go to collect it. Gradually, the relationship between the two-rota for several years by continuing Etilicos ravings of Woody took a different turn to the surprise of the mother and brother of David achiever.

Complete name: Nebraska.LATINO.2013.1080p.BluRay.x264-SPARKS.mkv
Format: Matroska
File size: 8.16 GiB
Duration: 1h 54mn
Overall bit rate: 10.2 Mbps
Encoded date: UTC 2014-02-17 01:39:16
Writing application: mkvmerge v5.7.0 ('The Whirlwind') built on Jul 8 2012 20:08:51
Writing library: libebml v1.2.3 + libmatroska v1.3.0
ID: 1
Format: AVC
Format/Info: Advanced Video Codec
Format profile: [email protected]
Format settings, CABAC: Yes
Format settings, ReFrames: 5 frames
Muxing mode: Container [email protected]
Duration: 1h 54mn
Bit rate: 8 035 Kbps
Width: 1 920 pixels
Height: 800 pixels
Display aspect ratio: 2.40:1
Frame rate: 23.976 fps
Color space: YUV
Chroma subsampling: 4:2:0
Bit depth: 8 bits
Scan type: Progressive
Bits/(Pixel*Frame): 0.218
Stream size: 6.27 GiB (77%)
Writing library: x264 core 140 r2377 1ca7bb9
Audio #1
ID: 2
Format: DTS
Format/Info: Digital Theater Systems
Codec ID: A_DTS
Duration: 1h 54mn
Bit rate mode: Constant
Bit rate: 1 510 Kbps
Channel(s): 3 channels
Channel positions: Front: L C R
Sampling rate: 48.0 KHz
Bit depth: 24 bits
Stream size: 1.21 GiB (15%)
Title: English
Audio #2
ID: 3
Format: AC-3
Format/Info: Audio Coding 3
Mode extension: CM (complete main)
Codec ID: A_AC3
Duration: 1h 54mn
Bit rate mode: Constant
Bit rate: 640 Kbps
Channel(s): 3 channels
Channel positions: Front: L C R
Sampling rate: 48.0 KHz
Bit depth: 16 bits
Stream size: 525 MiB (6%)
Title: Espanol Latino
Language: Spanish
Title: English

Nebraska (2013)(FullHD 1080)
Nebraska (2013)(FullHD 1080)

Nebraska (2013)(FullHD 1080)
Direct Download

Tags: Nebraska, FullHD

Nebraska (2013)(FullHD 1080) Download via Hotfile Rapidshare Fileserve Megaupload & FileSonic, Nebraska (2013)(FullHD 1080) free torrent downloads included crack, serial, keygen.Nebraska (2013)(FullHD 1080) Fast Download via Rapidshare Hotfile Fileserve Filesonic Megaupload, Nebraska (2013)(FullHD 1080) Torrents and Emule Download or anything related.
Leave a Comment
Your Name:
Add Comments:

Enter Code: