Rosamunde Quartett - Anton Webern, Dmitri Shostakovich, Emil Frantisek Burian (1997)

Download Now

Rosamunde Quartett - Anton Webern, Dmitri Shostakovich, Emil Frantisek Burian (1997)

Rosamunde Quartett - Anton Webern, Dmitri Shostakovich, Emil Frantisek Burian (1997)
EAC | FLAC | Image (Cue&Log) ~ 209 Mb (incl 5%) | Mp3 (CBR320) ~ 131 Mb (incl 5%) | Scans included
Genre: Classical, Chamber Music | Label: ECM | # ECM New Series 1629, 457 067-2 | Time: 00:46:37

"String quartet fans will relish this excellent release from ECM. Although the Shostakovich 8th is one of the most over-recorded pieces in the string quartet literature, the performance here is worth having, and is combined with a somewhat familiar but not as widely recorded piece by Webern (for those who might be afraid to listen to anything by Webern, let me assure you that this is a most lovely, lyrical, hauntingly beautiful work, not at all daunting) and a quartet by a composer that will be unfamiliar to most, Emil Burian (1904-1959), whose String Quartet No. 4 is a haunting piece that makes for an attractive finish for this fine CD by the Rosamunde Quartet. The sound quality is rich and radiant in the best ECM tradition."

"The Rosamunde Quartett began its increasingly fruitful ECM relationship with this lyrically conceived disc, which brings together one of the twentieth-century repertoire's most widely played and recorded pieces (Shostakovich), one not so widely played (Webern), and one relatively unknown (Burian).

Although Anton Webern penned his Langsamer Satz in 1905, it would not be performed until nearly six decades later. One of many such single-movement string quartets produced at the behest of teacher Arnold Schönberg, it stands out for its balance of ergonomic contours and emotional fragility. In its attempts to gain purchase in the wake of a crumbling Romanticism in which the composer still found rooted value, the piece arches its back like a bridge across a gaping intellectual chasm. The result is an emotive stomach crawl that is quite visceral to hear and, I imagine, even more so to play. Through a series of languid turns, signposted by Ravel-like use of pizzicato, it carries the listener across a tundra of harmonies. It is its own inner fire, the instability of an art in and of being. The transitional agitations throughout are reactive rather than reactionary, and seem to gasp in slow motion toward an incomplete resolution.

Written in a three-day fervor following his diagnosis with polio, Dmitri Shostakovich's String Quartet No. 8, op. 110 (1960) is a bidirectional memorial, pointing one finger to a world being crushed under the weight of totalitarianism and another to the self caught in the middle. Structured around the intimate pedal point of the composer's initials-DSCH-and filled with allusions to many of his own works, its power is expressed through a protracted implosion in which not only our ears, but also our philosophical fantasies, come to be implicated. The opening Largo is one of modern music's most honest statements. Characterized by a sinuous tenacity and burnished chording, its shifts in key and height are painfully organic. By the time of this release, the piece had already made an ECM appearance in orchestral costume on Dolorosa. As a quartet, however, it remains wiser to the score's vast internal tensions. From the fibrous links and buzzing viola of the Allegro molto to the surprisingly ambulatory Largo reprise, the current version heaves with all the tears of its turbulent milieu. The call of the Allegretto is written off here not with the usual trill, but a restrained waver, and the pizzicati are so biting that one can almost feel them in the chest. The ever-mysterious viola solo is handled with the utmost delicacy as the violins recede farther than I have ever heard. The sustained violin note that follows echoes like tinnitus, a siren of historical malaise that slices through the mind. The staccato attack of the penultimate movement is not so much dramatic as it is traumatic, and in being so makes the resolved chords ring like a scar undercutting the healing process with the acrid fear of recurrence. My standard of reference for this seminal piece has always been the Lafayette String Quartet's fantastic 1993 rendition on Dorian Recordings, and I must say that here we reach a new level of craftsmanship.

The Rosamundes finish with a name likely unknown to most. In addition to being a composer, Emil František Burian (1904-1959) was a singer, musician, poet, actor, journalist, and playwright. Described as a "one-man Czech avant-garde," Burian was a strident communist whose primarily theatrical activities throughout the twenties and thirties served as mouthpiece for his leftist leanings. After surviving three German concentration camps, during which time he managed to put together a forbidden performance or two, he returned to his homeland, where he left a lasting mark in the comingling worlds of theatre and politics. His String Quartet No. 4, op. 95 was written just after the war. Though new to this listener, it reads like a synthesis of the Webern and Shostakovich: combining the former's elegiac veneer with the latter's tortured soliloquies. Its promises are fleeting, its dances icy and dense. Like a forgotten bottle of wine opened at long last, it contains a host of flavors locked at the peak of their historical creation.

This album is yet another example of how ECM New Series continues to revive the tried and true as no other imprint can. Of the many fine string quartet recordings offered, this is an ideal place to begin.

Review by Tyran Grillo,

Rosamunde Quartett:

- Andreas Reiner, violin
- Simon Fordham, violin
- Helmut Nicolai, viola
- Anja Lechner, cello


Anton Webern (1883-1945)
01. Langsamer Satz (Slow Movement), for string quartet (09:56)

Dmitri Shostakovich (1906-1975)
String Quartet No. 8 in C minor, Op. 110
02. Largo (04:35)
03. Allegro molto (02:54)
04. Allegretto (04:45)
05. Largo (04:56)
06. Largo (04:05)

Emil František Burian (1904-1959)
07. Volne a razne (04:49)
08. Rychle s citem (02:54)
09. Rytmicky divoke tri (03:01)
10. Divoce s dramatickou silou (04:38)

Exact Audio Copy V0.99 prebeta 4 from 23. January 2008

EAC extraction logfile from 9. December 2009, 12:12

Rosamunde Quartett / Webern, Shostakovich, Burian

Used drive : MATSHITADVD-RAM UJ-875S Adapter: 1 ID: 0

Read mode : Secure
Utilize accurate stream : Yes
Defeat audio cache : Yes
Make use of C2 pointers : No

Read offset correction

: 102
Overread into Lead-In and Lead-Out : No
Fill up missing offset samples with silence : Yes
Delete leading and trailing silent blocks : No
Null samples used in CRC calculations : Yes
Used interface
: Installed external ASPI interface

Used output format : User Defined Encoder
Selected bitrate : 320 kBit/s
Quality : High
Add ID3 tag : No
Command line compressor : C:\Program Files\Exact Audio Copy\Flac\flac.exe
Additional command line options : --best -V -T "date=%y" -T "genre=%m" %s

TOC of the extracted CD Track | Start | Length | Start sector | End sector
--1 | 0:00.00 | 9:56.00 | 0 | 44699 2 | 9:56.00 | 4:35.00 | 44700 | 65324 3 | 14:31.00 | 2:54.35 | 65325 | 78409 4 | 17:25.35 | 4:45.60 | 78410 | 99844 5 | 22:11.20 | 4:56.32 | 99845 | 122076 6 | 27:07.52 | 4:05.23 | 122077 | 140474 7 | 31:13.00 | 4:49.72 | 140475 | 162221 8 | 36:02.72 | 2:54.70 | 162222 | 175341 9 | 38:57.67 | 3:01.10 | 175342 | 188926
10 | 41:59.02 | 4:38.28 | 188927 | 209804

Range status and errors

Selected range Filename D:\MY MUSIC\Rosamunde Quartett - Webern, Shostakovich, Burian.wav Peak level 99.1 %
Range quality 100.0 %
Test CRC 216DB5D5
Copy CRC 216DB5D5
Copy OK

No errors occurred

AccurateRip summary

Track 1 accurately ripped (confidence 2) [45DC4B21]
Track 2 accurately ripped (confidence 2) [2106520D]
Track 3 accurately ripped (confidence 2) [19569B5D]
Track 4 accurately ripped (confidence 2) [84B495F2]
Track 5 accurately ripped (confidence 2) [1BA9A4CD]
Track 6 accurately ripped (confidence 2) [A3A3E059]
Track 7 accurately ripped (confidence 2) [204B17CF]
Track 8 accurately ripped (confidence 2) [5EEF1EFD]
Track 9 accurately ripped (confidence 2) [77161897]
Track 10 accurately ripped (confidence 2) [423FAEB4]

All tracks accurately ripped

End of status report

[CUETools log; Date: 17.10.2015 13:26:29; Version: 2.1.4]
[CTDB TOCID: OrPgOAkBu_r8bw3GB5XK2.1_j8g-] found.
Track | CTDB Status
1 | (3/3) Accurately ripped
2 | (3/3) Accurately ripped
3 | (3/3) Accurately ripped
4 | (3/3) Accurately ripped
5 | (3/3) Accurately ripped
6 | (3/3) Accurately ripped
7 | (3/3) Accurately ripped
8 | (3/3) Accurately ripped
9 | (3/3) Accurately ripped
10 | (3/3) Accurately ripped
[AccurateRip ID: 0013a3d8-0096dd1f-8f0aed0a] found.
Track [ CRC | V2 ] Status
01 [45dc4b21|4616fb4d] (05+05/10) Accurately ripped
02 [2106520d|9fe46a79] (05+05/10) Accurately ripped
03 [19569b5d|d56f6bc5] (05+05/10) Accurately ripped
04 [84b495f2|921413fb] (05+05/10) Accurately ripped
05 [1ba9a4cd|383ff131] (05+05/10) Accurately ripped
06 [a3a3e059|16c70fce] (05+05/10) Accurately ripped
07 [204b17cf|f89eb754] (05+05/10) Accurately ripped
08 [5eef1efd|00399d4c] (05+05/10) Accurately ripped
09 [77161897|5fc091d7] (05+05/10) Accurately ripped
10 [423faeb4|3f8f6ce9] (05+05/10) Accurately ripped

Track Peak [ CRC32 ] [W/O NULL] [ LOG ]
-- 99,1 [216DB5D5] [591F7F37] CRC32
01 90,1 [6DB4E66A] [71715CFB]
02 40,3 [854CEF2F] [681B3F40]
03 99,1 [8E13C987] [A790D4A0]
04 69,0 [C725C765] [0DEA006F]
05 97,0 [813D6BF4] [00C793FB]
06 33,4 [0CCC41EA] [4CB5280E]
07 98,8 [3CF73FFC] [39935DCE]
08 98,8 [D0E8326F] [25CD1D7E]
09 61,6 [66C7167A] [597D4D8D]
10 78,0 [FDA8A1C9] [7D21B14A]

foobar2000 1.2 / Dynamic Range Meter 1.1.1
log date: 2015-10-17 13:33:51

Analyzed: Rosamunde Quartett / Webern, Shostakovich, Burian

DR Peak RMS Duration Track

DR14 -0.90 dB -25.09 dB 9:56 01-Webern Lansamer Satz for Streichquartett
DR13 -7.89 dB -28.47 dB 4:35 02-Shostakovich Largo
DR13 -0.07 dB -17.05 dB 2:54 03-Shostakovich Allegro molto
DR16 -3.22 dB -24.67 dB 4:46 04-Shostakovich Allegretto
DR17 -0.26 dB -23.11 dB 4:56 05-Shostakovich Largo
DR13 -9.52 dB -28.06 dB 4:05 06-Shostakovich Largo
DR15 -0.10 dB -21.17 dB 4:50 07-Burian Volne a razne
DR14 -0.10 dB -21.19 dB 2:55 08-Burian Rychle s citem
DR13 -4.21 dB -20.98 dB 3:01 09-Burian Rytmicky divoke tri
DR14 -2.15 dB -24.20 dB 4:38 10-Burian Divoce s dramatickou silou

Number of tracks: 10
Official DR value: DR14

Samplerate: 44100 Hz
Channels: 2
Bits per sample: 16
Bitrate: 542 kbps
Codec: FLAC

Rosamunde Quartett - Anton Webern, Dmitri Shostakovich, Emil Frantisek Burian (1997)

Rosamunde Quartett - Anton Webern, Dmitri Shostakovich, Emil Frantisek Burian (1997)

All thanks to original releaser - AngeL GR
Password: designol

Buy Premium From My Links To Get Resumable Support & Max Speed & To Support Me

Links are Interchangeable - No Password - Single Extraction
Direct Download

Tags: Rosamunde, Quartett, Webern, Dmitri, Shostakovich, Frantisek, Burian

Rosamunde Quartett - Anton Webern, Dmitri Shostakovich, Emil Frantisek Burian (1997) Download via Hotfile Rapidshare Fileserve Megaupload & FileSonic, Rosamunde Quartett - Anton Webern, Dmitri Shostakovich, Emil Frantisek Burian (1997) free torrent downloads included crack, serial, keygen.Rosamunde Quartett - Anton Webern, Dmitri Shostakovich, Emil Frantisek Burian (1997) Fast Download via Rapidshare Hotfile Fileserve Filesonic Megaupload, Rosamunde Quartett - Anton Webern, Dmitri Shostakovich, Emil Frantisek Burian (1997) Torrents and Emule Download or anything related.
Leave a Comment
Your Name:
Add Comments:

Enter Code: