Alice Cooper - Muscle Of Love (1973) [2015 Audio Fidelity]

Download Now

Alice Cooper - Muscle Of Love (1973) [2015 Audio Fidelity]

Alice Cooper - Muscle Of Love (1973) [2015 Audio Fidelity]
EAC Secure Rip | FLAC (Image + Cue + Log) - 262 MB | Complete Scans (Jpeg 600 dpi) - 129 MB | MP3 (CBR320 Kbps) - 107 MB
Hard Rock | Audio Fidelity | AFZ5 229 | 39:33 minutes | Hosted On: NitroFlare &
CONTAINS CD LAYER ONLY

Muscle of Love is the seventh studio album by Alice Cooper. It is the final studio album recorded by the original Alice Cooper band.
The Muscle of Love album has been criticized by critics and fans alike for lacking the focused style that defined classic Alice Cooper albums like Killer and Billion Dollar Babies. Despite this problem, the album included some fine rockers. The best was the title track, a punchy riff-fest that mined the subject of hormonal teenagers for its lyrical grist. "Muscle of Love" was originally entitled "Respect for the Sleepers" and had a more otherworldly lyrical bent but was rewritten during the album sessions in a way that makes it an interesting teen-themed companion piece to "Teenage Lament '74." The finished lyric plays like the confession of a hormonal teen who claims "I must have come to that crazy age/Where everything is hot." The title object he refers to happens to be his heart, but lyrics like "Lock the door in the bathroom now/I just can't get caught in here" might lead a listener to think otherwise. The melody moves at a fast clip, juxtaposing short, bouncy verses with a triumphantly ascending chorus. Alice Cooper's recording pushes the song into the hard rock stratosphere by pumping it up with an aggressive arrangement that pushes its twisting guitar riffs and thumping bass lines with stomping, almost militaristic drum work. It also adds a fun, mock-Wagnerian coda where the band endlessly reprises the chorus while Cooper wails the title and a background chorus sings a Handel-derived "Hallelujah!" vocal. The result didn't find much success as a single, but "Muscle of Love" became a live favorite and later turned up on Alice Cooper's Greatest Hits album. Reviewed by Donald A. Guarisco allmusic.com
EAC Log Exact Audio Copy V1.0 beta 2 from 29. April 2011

EAC extraction logfile from 16. December 2015, 22:17

Alice Cooper / Muscle Of Love [2015 Audio Fidelity SACD]

Used drive : HL-DT-STBD-RE BH14NS40 Adapter: 0 ID: 2

Read mode : Secure
Utilize accurate stream : Yes
Defeat audio cache : Yes
Make use of C2 pointers : No

Read offset correction

: 6
Overread into Lead-In and Lead-Out : No
Fill up missing offset samples with silence : Yes
Delete leading and trailing silent blocks : No
Null samples used in CRC calculations : Yes
Used interface
: Native Win32 interface for Win NT & 2000

Used output format : User Defined Encoder
Selected bitrate : 1024 kBit/s
Quality : High
Add ID3 tag : No
Command line compressor : C:\Program Files (x86)\Exact Audio Copy\Flac\flac.exe
Additional command line options : -V -0 -T "artist=%albumartist%" -T "title=%title%" -T "album=%albumtitle%" -T "date=%year%" -T "genre=%genre%" -T "tracknumber=%tracknr%" %source%

TOC of the extracted CD Track | Start | Length | Start sector | End sector
--1 | 0:00.00 | 5:09.59 | 0 | 23233 2 | 5:09.59 | 4:28.22 | 23234 | 43355 3 | 9:38.06 | 4:53.29 | 43356 | 65359 4 | 14:31.35 | 5:02.00 | 65360 | 88009 5 | 19:33.35 | 3:32.32 | 88010 | 103941 6 | 23:05.67 | 3:45.57 | 103942 | 120873 7 | 26:51.49 | 4:13.27 | 120874 | 139875 8 | 31:05.01 | 3:53.36 | 139876 | 157386 9 | 34:58.37 | 4:34.53 | 157387 | 177989

Range status and errors

Selected range Filename C:\EAC\Alice Cooper - (1973) Muscle Of Love [2015 Audio Fidelity SACD]\Alice Cooper - Muscle Of Love [2015 Audio Fidelity SACD].wav Peak level 77.0 %
Extraction speed 4.4 X
Range quality 100.0 %
Test CRC 818AAA90
Copy CRC 818AAA90
Copy OK

No errors occurred


AccurateRip summary

Track 1 accurately ripped (confidence 1) [C222A264] (AR v2)
Track 2 accurately ripped (confidence 1) [EBDFFB54] (AR v2)
Track 3 accurately ripped (confidence 1) [914727AD] (AR v2)
Track 4 accurately ripped (confidence 1) [C08F98A7] (AR v2)
Track 5 accurately ripped (confidence 1) [F9575AC4] (AR v2)
Track 6 accurately ripped (confidence 1) [73D98608] (AR v2)
Track 7 accurately ripped (confidence 1) [DD53F2F1] (AR v2)
Track 8 accurately ripped (confidence 1) [C8E8D9C2] (AR v2)
Track 9 accurately ripped (confidence 1) [638D8C1A] (AR v2)

All tracks accurately ripped

End of status report

==== Log checksum C8356F9EEAB9A7C663DA309D0E6FA37C414579FEFB36318F7FBDDE7133BA2DBE ====

Track Listing:

01. Big Apple Dreamin' (Hippo)
02. Never Been Sold Before
03. Hard Hearted Alice
04. Crazy Little Child
05. Working Up A Sweat
06. Muscle Of Love
07. Man With The Golden Gun
08. Teenage Lament '74
09. Woman Machine

Album Released: November 20, 1973
Audio Fidelity SACD Released: December 11, 2015

Stereo CD & SACD Mastering: Steve Hoffman & Stephan Marsh DR Log foobar2000 1.3.2 / Dynamic Range Meter 1.1.0
log date: 2015-12-23 03:40:39

-
Analyzed: Alice Cooper / Muscle Of Love [2015 Audio Fidelity SACD]
-

DR Peak RMS Duration Track
-
DR13 -2.27 dB -17.78 dB 5:10 01-Big Apple Dreamin' (Hippo)
DR12 -2.93 dB -17.75 dB 4:28 02-Never Been Sold Before
DR13 -3.60 dB -19.69 dB 4:53 03-Hard Hearted Alice
DR13 -2.63 dB -19.67 dB 5:02 04-Crazy Little Child
DR12 -3.97 dB -17.95 dB 3:32 05-Working Up A Sweat
DR12 -3.61 dB -17.99 dB 3:46 06-Muscle Of Love
DR12 -3.21 dB -18.03 dB 4:13 07-Man With The Golden Gun
DR12 -3.58 dB -18.42 dB 3:53 08-Teenage Lament '74
DR13 -3.08 dB -18.13 dB 4:35 09-Woman Machine
-

Number of tracks: 9
Official DR value: DR12

Samplerate: 44100 Hz
Channels: 2
Bits per sample: 16
Bitrate: 879 kbps
Codec: FLAC

Alice Cooper - Muscle Of Love (1973) [2015 Audio Fidelity]
Alice Cooper - Muscle Of Love (1973) [2015 Audio Fidelity]
Alice Cooper - Muscle Of Love (1973) [2015 Audio Fidelity]


DOWNLOAD LINKS
Buy Premium From My Links To Get Resumable Support & Max Speed & To Support Me


Links are Interchangeable - No Password - Single Extraction
Direct Download

Tags: Cooper, Muscle, Fidelity

Alice Cooper - Muscle Of Love (1973) [2015 Audio Fidelity] Download via Hotfile Rapidshare Fileserve Megaupload & FileSonic, Alice Cooper - Muscle Of Love (1973) [2015 Audio Fidelity] free torrent downloads included crack, serial, keygen.Alice Cooper - Muscle Of Love (1973) [2015 Audio Fidelity] Fast Download via Rapidshare Hotfile Fileserve Filesonic Megaupload, Alice Cooper - Muscle Of Love (1973) [2015 Audio Fidelity] Torrents and Emule Download or anything related.
Leave a Comment
Your Name:
E-Mail:
Add Comments:

Enter Code: