Avatar (2009)(FULL 1080pp)

Download Now


Avatar (2009)(FULL 1080pp)

Original title Avatar
Year 2009
Duration 161 min.
Country United States
Director James Cameron
James Cameron script
Music James Horner
Photography Mauro Fiore
Starring Sam Worthington, Zoe Saldana, Sigourney Weaver, Stephen Lang, Michelle Rodriguez, Giovanni Ribisi, Joel David Moore, Wes Studi, CCH Pounder, Laz Alonso, Dileep Rao
Studio 20th Century Fox / Lightstorm Entertainment / Giant Studios Inc.
Science fiction genre. Adventure. Belico. Action. Fantastico. Romance | Nature. Extraterrestrials. 3-D
Synopsis Year 2154. Jake Sully (Sam Worthington), a man condemned to live in a wheelchair ex-marine, remains, nevertheless, a warrior authentic. Precisely for this reason it has been designated to go to Pandora, where some companies are extracting a rare mineral that could solve the energy crisis on Earth. To counteract the toxicity of the atmosphere of Pandora, it created the Avatar Program, through which human beings maintain their consciousness linked to an avatar: a biological body controlled remotely that can survive in the lethal air. These bodies are created by human DNA mixed with DNA from the natives of Pandora, the Navi. Become avatar, Jake can walk again. Your mission is to infiltrate the Navi, who have become a major obstacle to mining the ore. But when Neytiri, a beautiful Navi (Zoe Saldana), saves Jake's life, everything changes: Jake, after overcoming certain evidence is admitted in his clan. Meanwhile, men are awaiting the results of the mission of Jake



General
Complete name : Avatar (2009) EXTENDED FULL 1080p.mkv
Format : Matroska
Format version : Version 2
File size : 8.55 GiB
Duration : 2h 58mn
Overall bit rate : 6 870 Kbps
Movie name : Avatar (2009) EXTENDED FULL 1080p
Encoded date : UTC 2014-08-18 22:38:18
Writing application : mkvmerge v5.7.0 (The Whirlwind) built on Jul 8 2012 20:08:51
Writing library : libebml v1.2.3 + libmatroska v1.3.0
Video
ID : 1
Format : AVC
Format/Info : Advanced Video Codec
Format profile : [email protected]
Format settings, CABAC : Yes
Format settings, ReFrames : 2 frames
Muxing mode : Header stripping
Codec ID : V_MPEG4/ISO/AVC
Duration : 2h 58mn
Bit rate : 5 838 Kbps
Width : 1 920 pixels
Height : 1 080 pixels
Display aspect ratio : 16:9
Frame rate mode : Constant
Frame rate : 23.976 fps
Color space : YUV
Chroma subsampling : 4:2:0
Bit depth : 8 bits
Scan type : Progressive
Bits/(Pixel*Frame) : 0.117
Stream size : 7.26 GiB (85%)
Writing library : x264 core
Default : Yes
Forced : No
Color primaries : BT.709
Transfer characteristics : BT.709
Matrix coefficients : BT.709
Audio #1
ID : 2
Format : AC-3
Format/Info : Audio Coding 3
Mode extension : CM (complete main)
Format settings, Endianness : Big
Muxing mode : Header stripping
Codec ID : A_AC3
Duration : 2h 58mn
Bit rate mode : Constant
Bit rate : 448 Kbps
Channel count : 6 channels
Channel positions : Front: L C R, Side: L R, LFE
Sampling rate : 48.0 KHz
Bit depth : 16 bits
Compression mode : Lossy
Stream size : 571 MiB (7%)
Language : Spanish
Default : Yes
Forced : No
Audio #2
ID : 3
Format : AC-3
Format/Info : Audio Coding 3
Mode extension : CM (complete main)
Format settings, Endianness : Big
Muxing mode : Header stripping
Codec ID : A_AC3
Duration : 2h 58mn
Bit rate mode : Constant
Bit rate : 448 Kbps
Channel count : 6 channels
Channel positions : Front: L C R, Side: L R, LFE
Sampling rate : 48.0 KHz
Bit depth : 16 bits
Compression mode : Lossy
Stream size : 571 MiB (7%)
Language : English
Default : No
Forced : No
Text #1
ID : 4
Format : PGS
Muxing mode : zlib
Codec ID : S_HDMV/PGS
Codec ID/Info : The same subtitle format used on BDs/HD-DVDs
Language : English
Default : No
Forced : No
Text #2
ID : 5
Format : PGS
Muxing mode : zlib
Codec ID : S_HDMV/PGS
Codec ID/Info : The same subtitle format used on BDs/HD-DVDs
Language : Spanish
Default : No
Forced : No
Text #3
ID : 6
Format : PGS
Muxing mode : zlib
Codec ID : S_HDMV/PGS
Codec ID/Info : The same subtitle format used on BDs/HD-DVDs
Language : Spanish
Default : No
Forced : No
Text #4
ID : 7
Format : UTF-8
Codec ID : S_TEXT/UTF8
Codec ID/Info : UTF-8 Plain Text
Default : Yes
Forced : No


Avatar (2009)(FULL 1080pp)
Avatar (2009)(FULL 1080pp)

Avatar (2009)(FULL 1080pp)

Avatar (2009)(FULL 1080pp)
http://www.uploadable.ch/file/tcBPGYwwwQh6/avathdfd.part01.rar
http://www.uploadable.ch/file/nMRF4UkRKenS/avathdfd.part02.rar
http://www.uploadable.ch/file/F4dShUagJFnX/avathdfd.part03.rar
http://www.uploadable.ch/file/VmQBcug7CuNQ/avathdfd.part04.rar
http://www.uploadable.ch/file/TAr3FXMa5sYk/avathdfd.part05.rar
http://www.uploadable.ch/file/XqhkYQ6WdRST/avathdfd.part06.rar
http://www.uploadable.ch/file/ZEA4yP2EKbT2/avathdfd.part07.rar
http://www.uploadable.ch/file/zwya7hbPBDtW/avathdfd.part08.rar
http://www.uploadable.ch/file/ZYv8pJqAxwgA/avathdfd.part09.rar
http://www.uploadable.ch/file/mdJ6BMe43vHe/avathdfd.part10.rar
http://www.uploadable.ch/file/Hkk3Zf8KaJhs/avathdfd.part11.rar
http://www.uploadable.ch/file/m59qWAMvfh7z/avathdfd.part12.rar
http://www.uploadable.ch/file/xVw74G8WkvN3/avathdfd.part13.rar
http://www.uploadable.ch/file/Kd8hGA4aB9vA/avathdfd.part14.rar
http://www.uploadable.ch/file/26jUvCGMYYap/avathdfd.part15.rar
http://www.uploadable.ch/file/PMhFqBgq58mp/avathdfd.part16.rar
http://www.uploadable.ch/file/kWJU7kVS2BRT/avathdfd.part17.rar
http://www.uploadable.ch/file/82WPs7WGZp2a/avathdfd.part18.rar
http://www.uploadable.ch/file/YMAebq3djax7/avathdfd.part19.rar
http://www.uploadable.ch/file/bDAQfunDpC33/avathdfd.part20.rar
http://www.uploadable.ch/file/HPUQAtudZXGV/avathdfd.part21.rar
http://www.uploadable.ch/file/tvcvyezR83De/avathdfd.part22.rar
http://www.uploadable.ch/file/yqKaUQh2Rb4D/avathdfd.part23.rar
http://www.uploadable.ch/file/DrpscKKrXXdJ/avathdfd.part24.rar
http://www.uploadable.ch/file/skQ4eaN2sbmP/avathdfd.part25.rar
http://www.uploadable.ch/file/Cz2CpgSrMgdE/avathdfd.part26.rar
http://www.uploadable.ch/file/K5uvEf4tuJvH/avathdfd.part27.rar
http://www.uploadable.ch/file/69c7ghZHn6p5/avathdfd.part28.rar
http://www.uploadable.ch/file/e2d9T8xZph4E/avathdfd.part29.rar
http://www.uploadable.ch/file/QA3rH2eyU2DK/avathdfd.part30.rar
http://www.uploadable.ch/file/qnQ4V2qHUc8W/avathdfd.part31.rar
http://www.uploadable.ch/file/qqaEbHVT7z28/avathdfd.part32.rar
http://www.uploadable.ch/file/apRcrgtPVfWN/avathdfd.part33.rar
http://www.uploadable.ch/file/BN2ksxfyscmU/avathdfd.part34.rar
http://www.uploadable.ch/file/rWc4zZfaPKVz/avathdfd.part35.rar
Direct Download

Tags: Avatar

Avatar (2009)(FULL 1080pp) Download via Hotfile Rapidshare Fileserve Megaupload & FileSonic, Avatar (2009)(FULL 1080pp) free torrent downloads included crack, serial, keygen.Avatar (2009)(FULL 1080pp) Fast Download via Rapidshare Hotfile Fileserve Filesonic Megaupload, Avatar (2009)(FULL 1080pp) Torrents and Emule Download or anything related.
Leave a Comment
Your Name:
E-Mail:
Add Comments:

Enter Code: