Death Race 2 (2010)(FULL 1080pp)

Download Now


Death Race 2 (2010)(FULL 1080pp)

Original title Death Race 2
Year 2010
Duration 96 min.
Country South Africa
Director Roel Reine
Guion Tony Giglio (Character and History: Paul WS Anderson)
Musica Paul Haslinger
Photographs John Mckay, Roel Reine
Starring Luke Goss, Ving Rhames, Danny Trejo, Sean Bean, Lauren Cohan, Tanit Phoenix, Robin Shou, Frederick Koehler, Bjorn Steinbach, Joe Vaz, Warrick Grier, Sean Higgs
Co-production South Africa-Germany; Moonlighting Films
Science fiction genre. Action. Thriller | Cars / Motoring. Prison drama. Dystopia. Prequel
Synopsis Death Race 2 takes place in the very near future, when the US economy begins to decline and violent crime starts to spiral out of control. To contain the prison population, a series of prisons private, ruled by gangs, cold-blooded murderers and sociopaths is created. The worst of these prisons is Terminal Island, where convicted for the murder of a Carl Lucas police arrive, which will be the last true star of reality show Death Race. The winner, if someone manages to survive, is freedom prize.



General
Complete name : Death Race 2 (2010) 1080p FULL Dual.mkv
Format : Matroska
Format version : Version 4 / Version 2
File size : 5.57 GiB
Duration : 1h 40mn
Overall bit rate : 7 951 Kbps
Movie name : Death Race 2 [2010][1080p FULL Dual]
Encoded date : UTC 2014-11-26 03:15:25
Writing application : mkvmerge v6.9.1 (Blue Panther) 64bit built on Apr 18 2014 18:23:38
Writing library : libebml v1.3.0 + libmatroska v1.4.1
Video
ID : 1
Format : AVC
Format/Info : Advanced Video Codec
Format profile : [email protected]
Format settings, CABAC : Yes
Format settings, ReFrames : 2 frames
Codec ID : V_MPEG4/ISO/AVC
Duration : 1h 40mn
Bit rate : 6 746 Kbps
Width : 1 920 pixels
Height : 1 080 pixels
Display aspect ratio : 16:9
Frame rate mode : Constant
Frame rate : 23.976 fps
Color space : YUV
Chroma subsampling : 4:2:0
Bit depth : 8 bits
Scan type : Progressive
Bits/(Pixel*Frame) : 0.136
Stream size : 4.56 GiB (82%)
Writing library : x264 core 142
Default : Yes
Forced : No
Color primaries : BT.709
Transfer characteristics : BT.709
Matrix coefficients : BT.709
Audio #1
ID : 2
Format : AC-3
Format/Info : Audio Coding 3
Mode extension : CM (complete main)
Format settings, Endianness : Big
Codec ID : A_AC3
Duration : 1h 40mn
Bit rate mode : Constant
Bit rate : 640 Kbps
Channel(s) : 6 channels
Channel positions : Front: L C R, Side: L R, LFE
Sampling rate : 48.0 KHz
Bit depth : 16 bits
Compression mode : Lossy
Stream size : 459 MiB (8%)
Default : Yes
Forced : No
Audio #2
ID : 3
Format : AC-3
Format/Info : Audio Coding 3
Mode extension : CM (complete main)
Format settings, Endianness : Big
Codec ID : A_AC3
Duration : 1h 40mn
Bit rate mode : Constant
Bit rate : 640 Kbps
Channel(s) : 6 channels
Channel positions : Front: L C R, Side: L R, LFE
Sampling rate : 48.0 KHz
Bit depth : 16 bits
Compression mode : Lossy
Stream size : 459 MiB (8%)
Default : No
Forced : No
Text #1
ID : 4
Format : UTF-8
Codec ID : S_TEXT/UTF8
Codec ID/Info : UTF-8 Plain Text
Default : Yes
Forced : No
Text #2
ID : 5
Format : VobSub
Muxing mode : zlib
Codec ID : S_VOBSUB
Codec ID/Info : The same subtitle format used on DVDs
Default : No
Forced : No
Text #3
ID : 6
Format : VobSub
Muxing mode : zlib
Codec ID : S_VOBSUB
Codec ID/Info : The same subtitle format used on DVDs
Default : No
Forced : No


Death Race 2 (2010)(FULL 1080pp)
Death Race 2 (2010)(FULL 1080pp)

Death Race 2 (2010)(FULL 1080pp)

Death Race 2 (2010)(FULL 1080pp)
http://www.uploadable.ch/file/UyewZUFUG2NY/derac2hd.part01.rar
http://www.uploadable.ch/file/yCZNv95PdTam/derac2hd.part02.rar
http://www.uploadable.ch/file/G2CRArebgKn9/derac2hd.part03.rar
http://www.uploadable.ch/file/phrvsjyMYpmz/derac2hd.part04.rar
http://www.uploadable.ch/file/pUeKDFzyDv8h/derac2hd.part05.rar
http://www.uploadable.ch/file/pJhNNHuPpucs/derac2hd.part06.rar
http://www.uploadable.ch/file/FWWuvVMCX4gv/derac2hd.part07.rar
http://www.uploadable.ch/file/aFBga4EDpvRV/derac2hd.part08.rar
http://www.uploadable.ch/file/cTcCk8pXsqzz/derac2hd.part09.rar
http://www.uploadable.ch/file/DmD7x2fdtv7B/derac2hd.part10.rar
http://www.uploadable.ch/file/a8JErhhqCA8X/derac2hd.part11.rar
http://www.uploadable.ch/file/2qBcyj8Zue2h/derac2hd.part12.rar
http://www.uploadable.ch/file/sDQ9M3h4aYnb/derac2hd.part13.rar
http://www.uploadable.ch/file/YKM2H8urTppU/derac2hd.part14.rar
http://www.uploadable.ch/file/333k4FFqwTgm/derac2hd.part15.rar
http://www.uploadable.ch/file/wJ7GPvqdsrta/derac2hd.part16.rar
http://www.uploadable.ch/file/3z6m7Tamz7MQ/derac2hd.part17.rar
http://www.uploadable.ch/file/wfxbhtxWc3DR/derac2hd.part18.rar
http://www.uploadable.ch/file/hvaUtACrtJXz/derac2hd.part19.rar
http://www.uploadable.ch/file/3eVgBRj7Bp4F/derac2hd.part20.rar
http://www.uploadable.ch/file/9QbhQyHBZV9F/derac2hd.part21.rar
http://www.uploadable.ch/file/2x3JPYau2haf/derac2hd.part22.rar
http://www.uploadable.ch/file/FXFGmxEQNYJa/derac2hd.part23.rar
Direct Download

Death Race 2 (2010)(FULL 1080pp) Download via Hotfile Rapidshare Fileserve Megaupload & FileSonic, Death Race 2 (2010)(FULL 1080pp) free torrent downloads included crack, serial, keygen.Death Race 2 (2010)(FULL 1080pp) Fast Download via Rapidshare Hotfile Fileserve Filesonic Megaupload, Death Race 2 (2010)(FULL 1080pp) Torrents and Emule Download or anything related.
Leave a Comment
Your Name:
E-Mail:
Add Comments:

Enter Code: