Death Race 3 (2013)(FULL 1080pp)

Download Now


Death Race 3 (2013)(FULL 1080pp)

Original title Death Race: Inferno (Death Race 3)
Year 2013
Duration 105 min.
Country United States
Director Roel Reine
Tony Giglio screenplay, Paul W. S. Anderson
Trevor Morris music
Photographs Roel Reine, Wayne Shields
Starring Luke Goss, Ving Rhames, Danny Trejo, Dougray Scott, Tanit Phoenix, Robin Shou, Sean Cameron Michael, Roxane Hayward, Tanya van Graan, Natalie Becker, Kim Engelbrecht, Hlubi Mboya, Michelle van Schaik, Bart Fouche, Roxane Van Rooyen, Fred Koehler, Yrsa Daley-Ward, Simone Van Rooyen, Chaulbi Dean-Kreik, Mark Elderkin, Jeremy Crutchley, Gina Athans, Brandon Livanos
Moonlighting Films Studio
GENRE Action. Science fiction | Cars / Motoring. Dystopia. Sequela
Synopsis convicted of murdering policemen, Carl Lucas also known as Frankenstein is the new star driver Death Race, a deadly race that is played out free from prison and his team of mechanics. Therefore Lucas is immersed in a new cruelest competition than anything you've experienced before. It is faced with the most ruthless adversaries in a race in the Kalahari Desert in southern Africa.



General
Complete name : Death Race 3 (2012) 1080p FULL Dual.mkv
Format : Matroska
Format version : Version 4 / Version 2
File size : 5.59 GiB
Duration : 1h 45mn
Overall bit rate : 7 606 Kbps
Movie name : Death Race 3 [2012][1080p FULL Dual]
Encoded date : UTC 2014-11-26 03:23:27
Writing application : mkvmerge v6.9.1 (Blue Panther) 64bit built on Apr 18 2014 18:23:38
Writing library : libebml v1.3.0 + libmatroska v1.4.1
Video
ID : 1
Format : AVC
Format/Info : Advanced Video Codec
Format profile : [email protected]
Format settings, CABAC : Yes
Format settings, ReFrames : 2 frames
Codec ID : V_MPEG4/ISO/AVC
Duration : 1h 45mn
Bit rate : 6 457 Kbps
Width : 1 920 pixels
Height : 1 080 pixels
Display aspect ratio : 16:9
Frame rate mode : Constant
Frame rate : 23.976 fps
Color space : YUV
Chroma subsampling : 4:2:0
Bit depth : 8 bits
Scan type : Progressive
Bits/(Pixel*Frame) : 0.130
Stream size : 4.54 GiB (81%)
Writing library : x264 core 142
Default : Yes
Forced : No
Color primaries : BT.709
Transfer characteristics : BT.709
Matrix coefficients : BT.709
Audio #1
ID : 2
Format : AC-3
Format/Info : Audio Coding 3
Mode extension : CM (complete main)
Format settings, Endianness : Big
Codec ID : A_AC3
Duration : 1h 45mn
Bit rate mode : Constant
Bit rate : 640 Kbps
Channel(s) : 6 channels
Channel positions : Front: L C R, Side: L R, LFE
Sampling rate : 48.0 KHz
Bit depth : 16 bits
Compression mode : Lossy
Stream size : 482 MiB (8%)
Title : spanish
Default : Yes
Forced : No
Audio #2
ID : 3
Format : AC-3
Format/Info : Audio Coding 3
Mode extension : CM (complete main)
Format settings, Endianness : Big
Codec ID : A_AC3
Duration : 1h 45mn
Bit rate mode : Constant
Bit rate : 640 Kbps
Channel(s) : 6 channels
Channel positions : Front: L C R, Side: L R, LFE
Sampling rate : 48.0 KHz
Bit depth : 16 bits
Compression mode : Lossy
Stream size : 482 MiB (8%)
Title : english
Default : No
Forced : No
Text #1
ID : 4
Format : UTF-8
Codec ID : S_TEXT/UTF8
Codec ID/Info : UTF-8 Plain Text
Default : Yes
Forced : No
Text #2
ID : 5
Format : VobSub
Muxing mode : zlib
Codec ID : S_VOBSUB
Codec ID/Info : The same subtitle format used on DVDs
Title : spanish
Default : No
Forced : No
Text #3
ID : 6
Format : VobSub
Muxing mode : zlib
Codec ID : S_VOBSUB
Codec ID/Info : The same subtitle format used on DVDs
Title : english
Default : No
Forced : No


Death Race 3 (2013)(FULL 1080pp)
Death Race 3 (2013)(FULL 1080pp)


Death Race 3 (2013)(FULL 1080pp)

Death Race 3 (2013)(FULL 1080pp)
http://www.uploadable.ch/file/d4b8HDUeybGA/derac3hd.part01.rar
http://www.uploadable.ch/file/F5R9qMseyQUU/derac3hd.part02.rar
http://www.uploadable.ch/file/8FxSNrayXGRd/derac3hd.part03.rar
http://www.uploadable.ch/file/qEGpnfjfjHZb/derac3hd.part04.rar
http://www.uploadable.ch/file/tPG8PtQpBfw8/derac3hd.part05.rar
http://www.uploadable.ch/file/CR7uHsq2G4qY/derac3hd.part06.rar
http://www.uploadable.ch/file/cFBvDa7Mqs2v/derac3hd.part07.rar
http://www.uploadable.ch/file/TdSJnrnjMr4Y/derac3hd.part08.rar
http://www.uploadable.ch/file/qP4r23s6bcfw/derac3hd.part09.rar
http://www.uploadable.ch/file/6KvHXHcRGd6V/derac3hd.part10.rar
http://www.uploadable.ch/file/HJ3TYZgT3V5J/derac3hd.part11.rar
http://www.uploadable.ch/file/56ZdHm4Nbn4e/derac3hd.part12.rar
http://www.uploadable.ch/file/FrHgYnxRRBEz/derac3hd.part13.rar
http://www.uploadable.ch/file/7T8xm2ZmwGAN/derac3hd.part14.rar
http://www.uploadable.ch/file/EUNQpuqGZ2xj/derac3hd.part15.rar
http://www.uploadable.ch/file/En4qcqktTDv6/derac3hd.part16.rar
http://www.uploadable.ch/file/sd8AFkGJymCB/derac3hd.part17.rar
http://www.uploadable.ch/file/znnBUz3jccZ2/derac3hd.part18.rar
http://www.uploadable.ch/file/hvyKetrJ2Ttm/derac3hd.part19.rar
http://www.uploadable.ch/file/JfZYKj9mNDV4/derac3hd.part20.rar
http://www.uploadable.ch/file/dk6eTzdHz47k/derac3hd.part21.rar
http://www.uploadable.ch/file/7GxnCPjW38k9/derac3hd.part22.rar
http://www.uploadable.ch/file/Dssj2pnPD63M/derac3hd.part23.rar
Direct Download

Death Race 3 (2013)(FULL 1080pp) Download via Hotfile Rapidshare Fileserve Megaupload & FileSonic, Death Race 3 (2013)(FULL 1080pp) free torrent downloads included crack, serial, keygen.Death Race 3 (2013)(FULL 1080pp) Fast Download via Rapidshare Hotfile Fileserve Filesonic Megaupload, Death Race 3 (2013)(FULL 1080pp) Torrents and Emule Download or anything related.
Leave a Comment
Your Name:
E-Mail:
Add Comments:

Enter Code: