Predator (1987)(Full 1080p)

Download Now


Predator (1987)(Full 1080p)

Original title Predator
year 1987
Duration 107 min.
Country United States
Director John McTiernan
Guion Jim Thomas & John Thomas
Music Alan Silvestri
Photography Donald McAlpine
Starring Arnold Schwarzenegger, Carl Weathers, Sonny Landham, Bill Duke, Elpidia Carrillo, Richard Chaves, Jesse Ventura, Shane Black, RG Armstrong, Kevin Peter Hall
Studio 20th Century Fox Producer:. Joel Silver
Gender Action. Aventuras. Science fiction | Aliens
Synopsis A group of mercenaries is hired by the CIA to rescue some drivers who have been captured by the rebels in the Central American jungle. The mission is a success, but during the return trip they realize that something mysterious and invisible this game giving them one by one. That something turns out to be an alien hunter who stays with the skulls of their victims as trophies.



General
Complete name : Predators 1 (1987) 1080p FULL Dual.mkv
Format : Matroska
Format version : Version 4 / Version 2
File size : 3.61 GiB
Duration : 1h 46mn
Overall bit rate : 4 851 Kbps
Movie name : Predators [1987][1080p FULL Dual]
Encoded date : UTC 2014-09-13 20:19:10
Writing application : mkvmerge v6.9.1 ('Blue Panther') 64bit built on Apr 18 2014 18:23:38
Writing library : libebml v1.3.0 + libmatroska v1.4.1
Video
ID : 1
Format : AVC
Format/Info : Advanced Video Codec
Format profile : [email protected]
Format settings, CABAC : Yes
Format settings, ReFrames : 4 frames
Codec ID : V_MPEG4/ISO/AVC
Duration : 1h 46mn
Bit rate : 4 000 Kbps
Width : 1 920 pixels
Height : 1 080 pixels
Display aspect ratio : 16:9
Frame rate mode : Constant
Frame rate : 23.976 fps
Color space : YUV
Chroma subsampling : 4:2:0
Bit depth : 8 bits
Scan type : Progressive
Bits/(Pixel*Frame) : 0.080
Stream size : 2.87 GiB (80%)
Writing library : x264 core 130 r2273 b3065e6
Default : Yes
Forced : No
Color primaries : BT.709
Transfer characteristics : BT.709
Matrix coefficients : BT.709
Audio #1
ID : 2
Format : AC-3
Format/Info : Audio Coding 3
Mode extension : CM (complete main)
Format settings, Endianness : Big
Codec ID : A_AC3
Duration : 1h 46mn
Bit rate mode : Constant
Bit rate : 448 Kbps
Channel(s) : 6 channels
Channel positions : Front: L C R, Side: L R, LFE
Sampling rate : 48.0 KHz
Bit depth : 16 bits
Compression mode : Lossy
Stream size : 342 MiB (9%)
Title : Espanol Latino
Default : Yes
Forced : No
Audio #2
ID : 3
Format : AC-3
Format/Info : Audio Coding 3
Mode extension : CM (complete main)
Format settings, Endianness : Big
Codec ID : A_AC3
Duration : 1h 46mn
Bit rate mode : Constant
Bit rate : 448 Kbps
Channel(s) : 6 channels
Channel positions : Front: L C R, Side: L R, LFE
Sampling rate : 48.0 KHz
Bit depth : 16 bits
Compression mode : Lossy
Stream size : 342 MiB (9%)
Title : Ingles
Default : No
Forced : No
Text #1
ID : 4
Format : UTF-8
Codec ID : S_TEXT/UTF8
Codec ID/Info : UTF-8 Plain Text
Default : Yes
Forced : No
Text #2
ID : 5
Format : PGS
Muxing mode : zlib
Codec ID : S_HDMV/PGS
Codec ID/Info : The same subtitle format used on BDs/HD-DVDs
Title : Subtitulos Espanol
Default : No
Forced : No
Text #3
ID : 6
Format : PGS
Muxing mode : zlib
Codec ID : S_HDMV/PGS
Codec ID/Info : The same subtitle format used on BDs/HD-DVDs
Title : Subtitulos Ingles
Default : No
Forced : No


Predator (1987)(Full 1080p)
Predator (1987)(Full 1080p)

Predator (1987)(Full 1080p)


http://www.uploadable.ch/file/agX755aJkU4n/depret1hd.part01.rar
http://www.uploadable.ch/file/xeqg9Vgm53Ca/depret1hd.part02.rar
http://www.uploadable.ch/file/6YdZpYymRb7a/depret1hd.part03.rar
http://www.uploadable.ch/file/CjguSGNjPghu/depret1hd.part04.rar
http://www.uploadable.ch/file/9GJSJQvRj6hq/depret1hd.part05.rar
http://www.uploadable.ch/file/DpMGdUvCm4gg/depret1hd.part06.rar
http://www.uploadable.ch/file/RCyW9FD2vhVT/depret1hd.part07.rar
http://www.uploadable.ch/file/eHzgCjRWGjj2/depret1hd.part08.rar
http://www.uploadable.ch/file/3mXTDSTWtYFs/depret1hd.part09.rar
http://www.uploadable.ch/file/gt4ntFHFjRY3/depret1hd.part10.rar
http://www.uploadable.ch/file/NhvAetVpNRqT/depret1hd.part11.rar
http://www.uploadable.ch/file/uP7qA9bdm3ac/depret1hd.part12.rar
http://www.uploadable.ch/file/pNHf55rtByC9/depret1hd.part13.rar
http://www.uploadable.ch/file/PV6uwuCZfara/depret1hd.part14.rar
http://www.uploadable.ch/file/MS93feMKNPeJ/depret1hd.part15.rar
Direct Download

Tags: Predator

Predator (1987)(Full 1080p) Download via Hotfile Rapidshare Fileserve Megaupload & FileSonic, Predator (1987)(Full 1080p) free torrent downloads included crack, serial, keygen.Predator (1987)(Full 1080p) Fast Download via Rapidshare Hotfile Fileserve Filesonic Megaupload, Predator (1987)(Full 1080p) Torrents and Emule Download or anything related.
Leave a Comment
Your Name:
E-Mail:
Add Comments:

Enter Code: