Predators (2010)(Full 1080p)

Download Now


Predators (2010)(Full 1080p)

Original title Predators
year 2010
Duration 107 min.
Country United States
Director Nimrod Antal
Guion Alex Litvak
Music John Debney
Photography Gyula Pados
Starring Adrien Brody, Alice Braga, Topher Grace, Walton Goggins, Oleg Taktarov, Mahershala Ali, Louis Ozawa Changchien, Danny Trejo, Laurence Fishburne
Studio 20th Century Fox / Troublemaker Studios
Science fiction genre. Action | Aliens. sequel
Synopsis Royce is a mercenary who reluctantly leads a group of elite warriors who just realizing that together have led to another planet ... to serve as prey. With the exception of a disgraced physician, they are heartless murderers, mercenaries, Yakuza, convicts, members of death squads, human "predators" that are now being systematically hunted and eliminated by a new breed of alien Predators



General
Complete name : Predators 3 (2010) 1080p FULL Dual.mkv
Format : Matroska
Format version : Version 4 / Version 2
File size : 3.60 GiB
Duration : 1h 46mn
Overall bit rate : 4 816 Kbps
Movie name : Predators 3 [2010][1080p FULL Dual]
Encoded date : UTC 2014-09-13 20:59:41
Writing application : mkvmerge v6.9.1 ('Blue Panther') 64bit built on Apr 18 2014 18:23:38
Writing library : libebml v1.3.0 + libmatroska v1.4.1
Video
ID : 1
Format : AVC
Format/Info : Advanced Video Codec
Format profile : [email protected]
Format settings, CABAC : Yes
Format settings, ReFrames : 4 frames
Codec ID : V_MPEG4/ISO/AVC
Duration : 1h 46mn
Bit rate : 4 000 Kbps
Width : 1 920 pixels
Height : 1 080 pixels
Display aspect ratio : 16:9
Frame rate mode : Constant
Frame rate : 23.976 fps
Color space : YUV
Chroma subsampling : 4:2:0
Bit depth : 8 bits
Scan type : Progressive
Bits/(Pixel*Frame) : 0.080
Stream size : 2.86 GiB (79%)
Writing library : x264 core 130 r2273 b3065e6
Default : Yes
Forced : No
Color primaries : BT.709
Transfer characteristics : BT.709
Matrix coefficients : BT.709
Audio #1
ID : 2
Format : AC-3
Format/Info : Audio Coding 3
Mode extension : CM (complete main)
Format settings, Endianness : Big
Codec ID : A_AC3
Duration : 1h 46mn
Bit rate mode : Constant
Bit rate : 448 Kbps
Channel(s) : 6 channels
Channel positions : Front: L C R, Side: L R, LFE
Sampling rate : 48.0 KHz
Bit depth : 16 bits
Compression mode : Lossy
Stream size : 342 MiB (9%)
Title : Espanol Latino
Default : Yes
Forced : No
Audio #2
ID : 3
Format : AC-3
Format/Info : Audio Coding 3
Mode extension : CM (complete main)
Format settings, Endianness : Big
Codec ID : A_AC3
Duration : 1h 46mn
Bit rate mode : Constant
Bit rate : 448 Kbps
Channel(s) : 6 channels
Channel positions : Front: L C R, Side: L R, LFE
Sampling rate : 48.0 KHz
Bit depth : 16 bits
Compression mode : Lossy
Stream size : 342 MiB (9%)
Title : Ingles
Default : No
Forced : No
Text #1
ID : 4
Format : UTF-8
Codec ID : S_TEXT/UTF8
Codec ID/Info : UTF-8 Plain Text
Default : Yes
Forced : No
Text #2
ID : 5
Format : PGS
Muxing mode : zlib
Codec ID : S_HDMV/PGS
Codec ID/Info : The same subtitle format used on BDs/HD-DVDs
Title : Subtitulos Espanol
Default : No
Forced : No
Text #3
ID : 6
Format : PGS
Muxing mode : zlib
Codec ID : S_HDMV/PGS
Codec ID/Info : The same subtitle format used on BDs/HD-DVDs
Title : Subtitulos Ingles
Default : No
Forced : No


Predators (2010)(Full 1080p)
Predators (2010)(Full 1080p)

Predators (2010)(Full 1080p)


http://www.uploadable.ch/file/WWWZbKBZ5y7u/depret3hd.part01.rar
http://www.uploadable.ch/file/VwUvy2rU8xRm/depret3hd.part02.rar
http://www.uploadable.ch/file/nHsPc3gaDnE8/depret3hd.part03.rar
http://www.uploadable.ch/file/YCSnwqydzMC4/depret3hd.part04.rar
http://www.uploadable.ch/file/Scwbyqn5W9Kz/depret3hd.part05.rar
http://www.uploadable.ch/file/shnWMsBWrbfK/depret3hd.part06.rar
http://www.uploadable.ch/file/NAEJrFebUp5K/depret3hd.part07.rar
http://www.uploadable.ch/file/wPn6kd9dar3K/depret3hd.part08.rar
http://www.uploadable.ch/file/KbEC2RX6AJru/depret3hd.part09.rar
http://www.uploadable.ch/file/NGYRjfRPt6v3/depret3hd.part10.rar
http://www.uploadable.ch/file/rrNNRZ46NGnk/depret3hd.part11.rar
http://www.uploadable.ch/file/akG7X77WqXmq/depret3hd.part12.rar
http://www.uploadable.ch/file/73E2r2zvaWaM/depret3hd.part13.rar
http://www.uploadable.ch/file/dm9cXHQJtfKK/depret3hd.part14.rar
http://www.uploadable.ch/file/x4sXD9VRRzHB/depret3hd.part15.rar
Direct Download

Tags: Predators

Predators (2010)(Full 1080p) Download via Hotfile Rapidshare Fileserve Megaupload & FileSonic, Predators (2010)(Full 1080p) free torrent downloads included crack, serial, keygen.Predators (2010)(Full 1080p) Fast Download via Rapidshare Hotfile Fileserve Filesonic Megaupload, Predators (2010)(Full 1080p) Torrents and Emule Download or anything related.
Leave a Comment
Your Name:
E-Mail:
Add Comments:

Enter Code: