American History X (1998)(FULL 1080pp)

Download Now


American History X (1998)(FULL 1080pp)

Original title American History X
1998
Duration 119 min.
Country United States
Director Tony Kaye
Guion David McKenna
Anne Dudley music
Photographs Tony Kaye
Starring Edward Norton, Edward Furlong, Fairuza Balk, Stacy Keach, Elliott Gould, Avery Brooks, Beverly D'Angelo, Jennifer Lien, Guy Torry, Ethan Suplee, Keram Malicki-Sanchez
New Line Cinema
Genre Drama | Racism. Prison drama. Cult movie. Nazism
Synopsis Derek (Edward Norton), a young "skinhead" Californian neo-Nazi ideology, was jailed for murdering a black who pretended to steal his van. When she leaves prison and returns to his neighborhood willing to walk away from the world of violence, he lies with his younger brother (Edward Furlong), for whom Derek is the model, follow the same path that led him to the jaill.



General
Complete name : American History X (1998) 1080p FULL HD.mkv
Format : Matroska
Format version : Version 4 / Version 2
File size : 7.98 GiB
Duration : 1h 58mn
Overall bit rate : 9 609 Kbps
Encoded date : UTC 2015-02-04 20:13:12
Writing application : mkvmerge v6.6.0 (The Edge Of The In Between) built on Dec 1 2013 17:55:00
Writing library : libebml v1.3.0 + libmatroska v1.4.1
Video
ID : 1
Format : AVC
Format/Info : Advanced Video Codec
Format profile : [email protected]
Format settings, CABAC : Yes
Format settings, ReFrames : 4 frames
Codec ID : V_MPEG4/ISO/AVC
Duration : 1h 58mn
Bit rate : 8 000 Kbps
Width : 1 920 pixels
Height : 1 080 pixels
Display aspect ratio : 16:9
Frame rate mode : Constant
Frame rate : 23.976 fps
Color space : YUV
Chroma subsampling : 4:2:0
Bit depth : 8 bits
Scan type : Progressive
Bits/(Pixel*Frame) : 0.161
Stream size : 6.41 GiB (80%)
Writing library : x264 core 130 r2273 b3065e6
Language : English
Default : Yes
Forced : No
Color primaries : BT.709
Transfer characteristics : BT.709
Matrix coefficients : BT.709
Audio #1
ID : 2
Format : AC-3
Format/Info : Audio Coding 3
Format profile : Dolby Digital
Mode extension : CM (complete main)
Format settings, Endianness : Big
Codec ID : A_AC3
Duration : 1h 58mn
Bit rate mode : Constant
Bit rate : 192 Kbps
Channel(s) : 2 channels
Channel positions : Front: L R
Sampling rate : 48.0 KHz
Bit depth : 16 bits
Compression mode : Lossy
Stream size : 163 MiB (2%)
Language : Spanish
Default : Yes
Forced : No
Audio #2
ID : 3
Format : DTS
Format/Info : Digital Theater Systems
Format profile : ES
Mode : 16
Format settings, Endianness : Big
Codec ID : A_DTS
Duration : 1h 58mn
Bit rate mode : Constant
Bit rate : 1 509 Kbps
Channel(s) : 6 channels
Channel positions : Front: L C R, Side: L R, LFE
Sampling rate : 48.0 KHz
Bit depth : 24 bits
Compression mode : Lossy
Stream size : 1.25 GiB (16%)
Language : English
Default : No
Forced : No
Text #1
ID : 4
Format : PGS
Muxing mode : zlib
Codec ID : S_HDMV/PGS
Codec ID/Info : The same subtitle format used on BDs/HD-DVDs
Language : Spanish
Default : No
Forced : No
Text #2
ID : 5
Format : PGS
Muxing mode : zlib
Codec ID : S_HDMV/PGS
Codec ID/Info : The same subtitle format used on BDs/HD-DVDs
Language : English
Default : No
Forced : No


American History X (1998)(FULL 1080pp)
American History X (1998)(FULL 1080pp)

American History X (1998)(FULL 1080pp)

American History X (1998)(FULL 1080pp)
http://www.uploadable.ch/file/Y6G56w9Z3UKk/mahithd.part01.rar
http://www.uploadable.ch/file/f2dfbaebZFXq/mahithd.part02.rar
http://www.uploadable.ch/file/JPfMRZQPYGvz/mahithd.part03.rar
http://www.uploadable.ch/file/krAtj5WnfmqF/mahithd.part04.rar
http://www.uploadable.ch/file/68pptdhpYjQe/mahithd.part05.rar
http://www.uploadable.ch/file/jCCkw3Ynckj9/mahithd.part06.rar
http://www.uploadable.ch/file/3CY3X3s7Jtac/mahithd.part07.rar
http://www.uploadable.ch/file/5fcR9dJDQU2k/mahithd.part08.rar
http://www.uploadable.ch/file/yCRHf7PnmAty/mahithd.part09.rar
http://www.uploadable.ch/file/tX8wTx3Yfh5y/mahithd.part10.rar
http://www.uploadable.ch/file/JMCBjx8DhdMw/mahithd.part11.rar
http://www.uploadable.ch/file/2V2Tnz93X7hp/mahithd.part12.rar
http://www.uploadable.ch/file/x7mNHrUC99Y6/mahithd.part13.rar
http://www.uploadable.ch/file/y7YbUTxeFtUg/mahithd.part14.rar
http://www.uploadable.ch/file/Nvae5kKs355q/mahithd.part15.rar
http://www.uploadable.ch/file/96CKwMPuxg5V/mahithd.part16.rar
http://www.uploadable.ch/file/ugmfpKq5Q986/mahithd.part17.rar
http://www.uploadable.ch/file/pc4m8kGc7qcZ/mahithd.part18.rar
http://www.uploadable.ch/file/usQCNGqnsK4A/mahithd.part19.rar
http://www.uploadable.ch/file/j4BX8WV5GVU8/mahithd.part20.rar
http://www.uploadable.ch/file/cuEpAp8KJ4XR/mahithd.part21.rar
http://www.uploadable.ch/file/VFgYCwtCUnsH/mahithd.part22.rar
http://www.uploadable.ch/file/CXG9wsH9zJCB/mahithd.part23.rar
http://www.uploadable.ch/file/S3nbyGyYsTGZ/mahithd.part24.rar
http://www.uploadable.ch/file/7GFgSn55RkFz/mahithd.part25.rar
http://www.uploadable.ch/file/NhKaw5FfXy9V/mahithd.part26.rar
http://www.uploadable.ch/file/hn3EMFTeKbtH/mahithd.part27.rar
http://www.uploadable.ch/file/GG9hEZeRSHDW/mahithd.part28.rar
http://www.uploadable.ch/file/gT2Mwy66xE5Z/mahithd.part29.rar
http://www.uploadable.ch/file/SnEaPtzcPbZn/mahithd.part30.rar
http://www.uploadable.ch/file/YD69Df72hKHk/mahithd.part31.rar
http://www.uploadable.ch/file/mDQSe6ZYvvEw/mahithd.part32.rar
http://www.uploadable.ch/file/ekkB8kbu2SsG/mahithd.part33.rar
Direct Download

Tags: American, History

American History X (1998)(FULL 1080pp) Download via Hotfile Rapidshare Fileserve Megaupload & FileSonic, American History X (1998)(FULL 1080pp) free torrent downloads included crack, serial, keygen.American History X (1998)(FULL 1080pp) Fast Download via Rapidshare Hotfile Fileserve Filesonic Megaupload, American History X (1998)(FULL 1080pp) Torrents and Emule Download or anything related.
Leave a Comment
Your Name:
E-Mail:
Add Comments:

Enter Code: