Jerry Maguire (1996)(FullHD 1080p)

Download Now


Jerry Maguire (1996)(FullHD 1080p)
http://www.imdb.com/title/tt0116695/

Original title Jerry Maguire
year 1996
Country United States
Director Cameron Crowe
Guion Cameron Crowe
Various music
Photography Janusz Kaminski
RepartoTom Cruise, Cuba Gooding Jr., Renee Zellweger, Kelly Preston, Jerry O'Connell, Jay Mohr, Bonnie Hunt, Jonathan Lipnicki, Regina King
Studio TriStar Pictures / Gracie Films
gender Comedia.Drama.Romance
Synopsis Jerry Maguire is one of the most competent employees of a prestigious agency dedicated to the promotion of sports. Your life goes smoothly until he realizes that people are more important than money. That day is fired and abandoned by his friends. Then he has no choice but to start from scratch with a player second only client and as a single mother as a secretary.



General
Complete name : Jerry Maguire (1996) [FULL 1080p Dual]
Format : Matroska
Format version : Version 4 / Version 2
File size : 3.64 GiB
Duration : 2h 18mn
Overall bit rate : 3 757 Kbps
Movie name : Jerry Maguire (1996) [FULL 1080p Dual]
Encoded date : UTC 2014-03-04 02:41:48
Writing application : mkvmerge v6.5.0 ('Isn't she lovely') built on Oct 20 2013 12:50:05
Writing library : libebml v1.3.0 + libmatroska v1.4.1
Video
ID : 1
Format : AVC
Format/Info : Advanced Video Codec
Format profile : [email protected]
Format settings, CABAC : Yes
Format settings, ReFrames : 1 frame
Format settings, GOP : M=1, N=24
Codec ID : V_MPEG4/ISO/AVC
Bit rate : 2 914 Kbps
Width : 1 920 pixels
Height : 1 080 pixels
Display aspect ratio : 16:9
Frame rate mode : Variable
Original frame rate : 23.976 fps
Color space : YUV
Chroma subsampling : 4:2:0
Bit depth : 8 bits
Scan type : Progressive
Writing library : x264 core
Default : Yes
Forced : No
Color primaries : BT.709
Transfer characteristics : BT.709
Matrix coefficients : BT.709
Audio #1
ID : 2
Format : AC-3
Format/Info : Audio Coding 3
Mode extension : CM (complete main)
Format settings, Endianness : Big
Codec ID : A_AC3
Duration : 2h 18mn
Bit rate mode : Constant
Bit rate : 448 Kbps
Channel count : 6 channels
Channel positions : Front: L C R, Side: L R, LFE
Sampling rate : 48.0 KHz
Bit depth : 16 bits
Compression mode : Lossy
Stream size : 444 MiB (12%)
Title : Audio Latino
Language : Spanish
Default : Yes
Forced : No
Audio #2
ID : 3
Format : AC-3
Format/Info : Audio Coding 3
Mode extension : CM (complete main)
Format settings, Endianness : Big
Codec ID : A_AC3
Duration : 2h 18mn
Bit rate mode : Constant
Bit rate : 320 Kbps
Channel count : 6 channels
Channel positions : Front: L C R, Side: L R, LFE
Sampling rate : 44.1 KHz
Bit depth : 16 bits
Compression mode : Lossy
Stream size : 317 MiB (9%)
Title : Audio Ingles
Language : English
Default : No
Forced : No
Text #1
ID : 4
Format : VobSub
Muxing mode : zlib
Codec ID : S_VOBSUB
Codec ID/Info : The same subtitle format used on DVDs
Title : Subtitulos Latino
Language : Spanish
Default : No
Forced : No
Text #2
ID : 5
Format : VobSub
Muxing mode : zlib
Codec ID : S_VOBSUB
Codec ID/Info : The same subtitle format used on DVDs
Title : Subtitulos Ingles
Language : English
Default : No
Forced : No
Text #3
ID : 6
Format : UTF-8
Codec ID : S_TEXT/UTF8
Codec ID/Info : UTF-8 Plain Text
Default : Yes
Forced : No


Jerry Maguire (1996)(FullHD 1080p)
Jerry Maguire (1996)(FullHD 1080p)

Jerry Maguire (1996)(FullHD 1080p)


http://www.uploadable.ch/file/YmSrmrpmEZyQ/jermaghhd.part01.rar
http://www.uploadable.ch/file/exjrJQ4jZZM7/jermaghhd.part02.rar
http://www.uploadable.ch/file/CJqvXZJ3GxzA/jermaghhd.part03.rar
http://www.uploadable.ch/file/yu6tyPJRwBm4/jermaghhd.part04.rar
http://www.uploadable.ch/file/s8hgDwt6fRk2/jermaghhd.part05.rar
http://www.uploadable.ch/file/sxTq4zT95zKv/jermaghhd.part06.rar
http://www.uploadable.ch/file/ST6R73s7PxM9/jermaghhd.part07.rar
http://www.uploadable.ch/file/AeHjC5NSzErk/jermaghhd.part08.rar
http://www.uploadable.ch/file/UUJR27XVCqtC/jermaghhd.part09.rar
http://www.uploadable.ch/file/HefP2Bgbz5M8/jermaghhd.part10.rar
http://www.uploadable.ch/file/C34bqkA64bA4/jermaghhd.part11.rar
http://www.uploadable.ch/file/WZuectbpfGwa/jermaghhd.part12.rar
http://www.uploadable.ch/file/pahgKGpdEMK7/jermaghhd.part13.rar
http://www.uploadable.ch/file/Pn5DHJYbBJwW/jermaghhd.part14.rar
http://www.uploadable.ch/file/WKqWcrQXMHmb/jermaghhd.part15.rar
Direct Download

Tags: Maguire, FullHD

Jerry Maguire (1996)(FullHD 1080p) Download via Hotfile Rapidshare Fileserve Megaupload & FileSonic, Jerry Maguire (1996)(FullHD 1080p) free torrent downloads included crack, serial, keygen.Jerry Maguire (1996)(FullHD 1080p) Fast Download via Rapidshare Hotfile Fileserve Filesonic Megaupload, Jerry Maguire (1996)(FullHD 1080p) Torrents and Emule Download or anything related.
Leave a Comment
Your Name:
E-Mail:
Add Comments:

Enter Code: