Pain and Gain (2013)(FullHD 1080p)

Download Now


Pain and Gain (2013)(FullHD 1080p)
http://www.imdb.com/title/tt1980209/

Original title Pain & Gain (Pain and Gain)
year 2013
Duration 129 min.
Country United States
Director Michael Bay
Guion Christopher Markus, Stephen McFeely (Articles: Pete Collins)
Steve Jablonsky Music
Photography Ben Seresin
Starring Mark Wahlberg, Dwayne "The Rock" Johnson, Anthony Mackie, Ed Harris, Tony Shalhoub, Rebel Wilson, Ken Jeong, Rob Corddry, William Haze, Bar Paly, Peter Stormare, Keili Lefkovitz, Yolanthe Cabau
Studio Paramount Pictures / Platinum Dunes / De Line Pictures
Genre Comedy. Action | Based on a true story. Black comedy. Crime. Kidnappings / Disappearances. drugs
Synopsis Miami nineties. Two Bodybuilders (Mark Wahlberg and Dwayne "The Rock" Johnson) plan the kidnapping of a wealthy businessman. During the operation they believe they have killed his victim, but it is not. Once recovered, the employer hires a private detective (Ed Harris) to locate his captors for the purpose of revenge on them



Complete name : Dolor Y Dinero (2013) 1080p Dual.mkv
Format : Matroska
Format version : Version 4 / Version 2
File size : 2.97 GiB
Duration : 2h 9mn
Overall bit rate : 3 280 Kbps
Movie name : Pain and Gain [2013][1080p Dual]
Encoded date : UTC 2013-11-29 00:13:35
Writing application : mkvmerge v6.0.0 ('Coming Up For Air') built on Jan 20 2013 09:52:00
Writing library : libebml v1.3.0 + libmatroska v1.4.0
Video
ID : 1
Format : AVC
Format/Info : Advanced Video Codec
Format profile : [email protected]
Format settings, CABAC : Yes
Format settings, ReFrames : 4 frames
Codec ID : V_MPEG4/ISO/AVC
Duration : 2h 9mn
Bit rate : 2 319 Kbps
Nominal bit rate : 2 450 Kbps
Width : 1 920 pixels
Height : 1 080 pixels
Display aspect ratio : 16:9
Frame rate mode : Constant
Frame rate : 23.976 fps
Color space : YUV
Chroma subsampling : 4:2:0
Bit depth : 8 bits
Scan type : Progressive
Bits/(Pixel*Frame) : 0.047
Stream size : 2.10 GiB (71%)
Writing library : x264 core 130 r2273 b3065e6
Default : Yes
Forced : No
Color primaries : BT.709
Transfer characteristics : BT.709
Matrix coefficients : BT.709
Audio #1
ID : 2
Format : AC-3
Format/Info : Audio Coding 3
Mode extension : CM (complete main)
Format settings, Endianness : Big
Codec ID : A_AC3
Duration : 2h 9mn
Bit rate mode : Constant
Bit rate : 448 Kbps
Channel count : 6 channels
Channel positions : Front: L C R, Side: L R, LFE
Sampling rate : 48.0 KHz
Bit depth : 16 bits
Compression mode : Lossy
Stream size : 415 MiB (14%)
Title : Espanol Latino
Default : Yes
Forced : No
Audio #2
ID : 3
Format : AC-3
Format/Info : Audio Coding 3
Mode extension : CM (complete main)
Format settings, Endianness : Big
Codec ID : A_AC3
Duration : 2h 9mn
Bit rate mode : Constant
Bit rate : 448 Kbps
Channel count : 6 channels
Channel positions : Front: L C R, Side: L R, LFE
Sampling rate : 48.0 KHz
Bit depth : 16 bits
Compression mode : Lossy
Stream size : 415 MiB (14%)
Title : Ingles
Default : No
Forced : No
Text #1
ID : 4
Format : UTF-8
Codec ID : S_TEXT/UTF8
Codec ID/Info : UTF-8 Plain Text
Default : Yes
Forced : No
Text #2
ID : 5
Format : UTF-8
Codec ID : S_TEXT/UTF8
Codec ID/Info : UTF-8 Plain Text
Title : Subtitulos Espanol
Default : No
Forced : No


Pain and Gain (2013)(FullHD 1080p)
Pain and Gain (2013)(FullHD 1080p)



Pain and Gain (2013)(FullHD 1080p)
http://www.uploadable.ch/file/GRsgmXFGRyQ9/doladinhd.part01.rar
http://www.uploadable.ch/file/bQnN5Z6JjsmX/doladinhd.part02.rar
http://www.uploadable.ch/file/p7sK7SFCwzER/doladinhd.part03.rar
http://www.uploadable.ch/file/9TGu6rPY37Ca/doladinhd.part04.rar
http://www.uploadable.ch/file/Baead8JbRfPu/doladinhd.part05.rar
http://www.uploadable.ch/file/tMySFXTbaFEW/doladinhd.part06.rar
http://www.uploadable.ch/file/RgARcjNMzEht/doladinhd.part07.rar
http://www.uploadable.ch/file/H67Rezx5Y8jq/doladinhd.part08.rar
http://www.uploadable.ch/file/XCHcvXwS3ayT/doladinhd.part09.rar
http://www.uploadable.ch/file/bgZRAPAHWzpe/doladinhd.part10.rar
http://www.uploadable.ch/file/m8Gu4fZnhv7g/doladinhd.part11.rar
http://www.uploadable.ch/file/KKPg4s9Jgvtm/doladinhd.part12.rar
Direct Download

Tags: FullHD

Pain and Gain (2013)(FullHD 1080p) Download via Hotfile Rapidshare Fileserve Megaupload & FileSonic, Pain and Gain (2013)(FullHD 1080p) free torrent downloads included crack, serial, keygen.Pain and Gain (2013)(FullHD 1080p) Fast Download via Rapidshare Hotfile Fileserve Filesonic Megaupload, Pain and Gain (2013)(FullHD 1080p) Torrents and Emule Download or anything related.
Leave a Comment
Your Name:
E-Mail:
Add Comments:

Enter Code: