Police Academy 2 (1985)(FullHD 1080p)

Download Now


Police Academy 2 (1985)(FullHD 1080p)

ORIGINAL TITLE Police Academy 2: Their First Assignment
ANO 1985
COUNTRY USA
DIRECTOR Jerry Paris
SCRIPT Barry Blaustein, David Sheffield (Characters: Neal Israel & Pat Proft)
MUSIC Robert Folk
PHOTOGRAPHY James Crabe
CAST Steve Guttenberg, Bubba Smith, David Graf, Michael Winslow, Bruce Mahler, Colleen Camp, Marion Ramsey, Howard Hesseman, George Gaynes, Bobcat Goldthwait, Tim Kazurinsky
PRODUCER Warner Bros.
GENRE Comedy | Policiaco. Crime. sequel
Comedy SYNOPSIS crazy filon the fail of the success of the first part. In this disastrous rookie cops are now facing their first official mission in the streets.



General
Police Academy 2 (1985) [FULL 1080p Dual]
Format : Matroska
Format version : Version 4 / Version 2
File size : 2.15 GiB
Duration : 1h 27mn
Overall bit rate : 3 531 Kbps
Movie name : Police Academy 2 (1985) [FULL 1080p Dual]
Encoded date : UTC 2014-01-28 13:53:56
Writing application : mkvmerge v6.0.0 ('Coming Up For Air') built on Jan 20 2013 09:52:00
Writing library : libebml v1.3.0 + libmatroska v1.4.0
Video
ID : 1
Format : AVC
Format/Info : Advanced Video Codec
Format profile : [email protected]
Format settings, CABAC : Yes
Format settings, ReFrames : 2 frames
Codec ID : V_MPEG4/ISO/AVC
Duration : 1h 27mn
Bit rate : 2 949 Kbps
Width : 1 920 pixels
Height : 1 080 pixels
Display aspect ratio : 16:9
Frame rate mode : Constant
Frame rate : 23.976 fps
Color space : YUV
Chroma subsampling : 4:2:0
Bit depth : 8 bits
Scan type : Progressive
Bits/(Pixel*Frame) : 0.059
Stream size : 1.80 GiB (84%)
Writing library : x264 core
Default : Yes
Forced : No
Color primaries : BT.709
Transfer characteristics : BT.709
Matrix coefficients : BT.709
Audio #1
ID : 2
Format : AC-3
Format/Info : Audio Coding 3
Mode extension : CM (complete main)
Format settings, Endianness : Big
Codec ID : A_AC3
Duration : 1h 27mn
Bit rate mode : Constant
Bit rate : 192 Kbps
Channel count : 2 channels
Channel positions : Front: L R
Sampling rate : 48.0 KHz
Bit depth : 16 bits
Compression mode : Lossy
Stream size : 120 MiB (5%)
Title : Audio Latino
Default : Yes
Forced : No
Audio #2
ID : 3
Format : AC-3
Format/Info : Audio Coding 3
Mode extension : CM (complete main)
Format settings, Endianness : Big
Codec ID : A_AC3
Duration : 1h 27mn
Bit rate mode : Constant
Bit rate : 320 Kbps
Channel count : 1 channel
Channel positions : Front: C
Sampling rate : 44.1 KHz
Bit depth : 16 bits
Compression mode : Lossy
Stream size : 199 MiB (9%)
Title : Audio Ingles
Default : No
Forced : No
Text #1
ID : 4
Format : UTF-8
Codec ID : S_TEXT/UTF8
Codec ID/Info : UTF-8 Plain Text
Title : Subtitulos Latino
Default : No
Forced : No
Text #2
ID : 5
Format : UTF-8
Codec ID : S_TEXT/UTF8
Codec ID/Info : UTF-8 Plain Text
Title : Subtitulos Ingles
Default : No
Forced : No
Text #3
ID : 6
Format : UTF-8
Codec ID : S_TEXT/UTF8
Codec ID/Info : UTF-8 Plain Text
Default : Yes
Forced : No


Police Academy 2 (1985)(FullHD 1080p)
Police Academy 2 (1985)(FullHD 1080p)

Police Academy 2 (1985)(FullHD 1080p)


http://www.uploadable.ch/file/Btck7hU9KuPB/polacd2hd.part01.rar
http://www.uploadable.ch/file/4KekWQEfhuAf/polacd2hd.part02.rar
http://www.uploadable.ch/file/XHuFjqcu3mvz/polacd2hd.part03.rar
http://www.uploadable.ch/file/zMWFBcWJWbRa/polacd2hd.part04.rar
http://www.uploadable.ch/file/NSrxjdAB3Ky5/polacd2hd.part05.rar
http://www.uploadable.ch/file/3JCCzG4gM2HS/polacd2hd.part06.rar
http://www.uploadable.ch/file/K3Vtp7Gn3uBb/polacd2hd.part07.rar
http://www.uploadable.ch/file/MRj5UeBKPCBB/polacd2hd.part08.rar
http://www.uploadable.ch/file/Y59vFNsAuxQA/polacd2hd.part09.rar
Direct Download

Tags: Police, Academy, FullHD

Police Academy 2 (1985)(FullHD 1080p) Download via Hotfile Rapidshare Fileserve Megaupload & FileSonic, Police Academy 2 (1985)(FullHD 1080p) free torrent downloads included crack, serial, keygen.Police Academy 2 (1985)(FullHD 1080p) Fast Download via Rapidshare Hotfile Fileserve Filesonic Megaupload, Police Academy 2 (1985)(FullHD 1080p) Torrents and Emule Download or anything related.
Leave a Comment
Your Name:
E-Mail:
Add Comments:

Enter Code: