Predator 2 (1990)(Full 1080p)

Download Now


Predator 2 (1990)(Full 1080p)

Original title Predator 2
year 1990
Duration 108 min.
Country United States
Director Stephen Hopkins
Guion John Thomas, Jim Thomas
Music Alan Silvestri
Photography Peter Levy
Starring Danny Glover, Gary Busey, Ruben Blades, Maria Conchita Alonso, Bill Paxton, Robert Davi, Adam Baldwin, Kent McCord, Kevin Peter Hall, Calvin Lockhart, Elpidia Carrillo
Studio 20th Century Fox
Science fiction genre. Fantastico. Action | Aliens. sequel
Synopsis A group of Los Angeles cops faces a mysterious murderer who dismembers his victims with unusual savagery. Soon, the group's leader, Captain Harrigan, discover that their enemy is an alien come to Earth with the sole purpose of hunting practice.



General
Complete name : Predators 2 (1990) 1080p FULL Dual.mkv
Format : Matroska
Format version : Version 4 / Version 2
File size : 3.68 GiB
Duration : 1h 48mn
Overall bit rate : 4 875 Kbps
Movie name : Predators 2 [1990][1080p FULL Dual]
Encoded date : UTC 2014-09-14 21:50:55
Writing application : mkvmerge v6.9.1 ('Blue Panther') 64bit built on Apr 18 2014 18:23:38
Writing library : libebml v1.3.0 + libmatroska v1.4.1
Video
ID : 1
Format : AVC
Format/Info : Advanced Video Codec
Format profile : [email protected]
Format settings, CABAC : Yes
Format settings, ReFrames : 4 frames
Codec ID : V_MPEG4/ISO/AVC
Duration : 1h 48mn
Bit rate : 4 000 Kbps
Width : 1 920 pixels
Height : 1 080 pixels
Display aspect ratio : 16:9
Frame rate mode : Constant
Frame rate : 23.976 fps
Color space : YUV
Chroma subsampling : 4:2:0
Bit depth : 8 bits
Scan type : Progressive
Bits/(Pixel*Frame) : 0.080
Stream size : 2.93 GiB (80%)
Writing library : x264 core 130 r2273 b3065e6
Default : Yes
Forced : No
Color primaries : BT.709
Transfer characteristics : BT.709
Matrix coefficients : BT.709
Audio #1
ID : 2
Format : AC-3
Format/Info : Audio Coding 3
Mode extension : CM (complete main)
Format settings, Endianness : Big
Codec ID : A_AC3
Duration : 1h 48mn
Bit rate mode : Constant
Bit rate : 448 Kbps
Channel(s) : 6 channels
Channel positions : Front: L C R, Side: L R, LFE
Sampling rate : 48.0 KHz
Bit depth : 16 bits
Compression mode : Lossy
Stream size : 346 MiB (9%)
Title : Espanol Latino
Default : Yes
Forced : No
Audio #2
ID : 3
Format : AC-3
Format/Info : Audio Coding 3
Mode extension : CM (complete main)
Format settings, Endianness : Big
Codec ID : A_AC3
Duration : 1h 48mn
Bit rate mode : Constant
Bit rate : 448 Kbps
Channel(s) : 6 channels
Channel positions : Front: L C R, Side: L R, LFE
Sampling rate : 48.0 KHz
Bit depth : 16 bits
Compression mode : Lossy
Stream size : 346 MiB (9%)
Title : Ingles
Default : No
Forced : No
Text #1
ID : 4
Format : UTF-8
Codec ID : S_TEXT/UTF8
Codec ID/Info : UTF-8 Plain Text
Default : Yes
Forced : No
Text #2
ID : 5
Format : PGS
Muxing mode : zlib
Codec ID : S_HDMV/PGS
Codec ID/Info : The same subtitle format used on BDs/HD-DVDs
Title : Subtitulos Espanol
Default : No
Forced : No
Text #3
ID : 6
Format : PGS
Muxing mode : zlib
Codec ID : S_HDMV/PGS
Codec ID/Info : The same subtitle format used on BDs/HD-DVDs
Title : Subtitulos Ingles
Default : No
Forced : No


Predator 2 (1990)(Full 1080p)
Predator 2 (1990)(Full 1080p)

Predator 2 (1990)(Full 1080p)


http://www.uploadable.ch/file/67qn5D5cR7Kg/depret2hd.part01.rar
http://www.uploadable.ch/file/Exj5PU4Bzdaw/depret2hd.part02.rar
http://www.uploadable.ch/file/F3tbK2GrzwYy/depret2hd.part03.rar
http://www.uploadable.ch/file/pBgk8aCAHpPk/depret2hd.part04.rar
http://www.uploadable.ch/file/7gRZJ3RHkddS/depret2hd.part05.rar
http://www.uploadable.ch/file/rXqC9gX4xDhV/depret2hd.part06.rar
http://www.uploadable.ch/file/nvAXrSDzAVTh/depret2hd.part07.rar
http://www.uploadable.ch/file/WwHz78b5kA78/depret2hd.part08.rar
http://www.uploadable.ch/file/wBM8MweMusv7/depret2hd.part09.rar
http://www.uploadable.ch/file/UsZTtaFWMqAg/depret2hd.part10.rar
http://www.uploadable.ch/file/m9QGjmu568N4/depret2hd.part11.rar
http://www.uploadable.ch/file/8yvqU54srqzB/depret2hd.part12.rar
http://www.uploadable.ch/file/6nZZqhDRewM3/depret2hd.part13.rar
http://www.uploadable.ch/file/PCYKN8Qm7fza/depret2hd.part14.rar
http://www.uploadable.ch/file/78BQkcxFjGD3/depret2hd.part15.rar
Direct Download

Tags: Predator

Predator 2 (1990)(Full 1080p) Download via Hotfile Rapidshare Fileserve Megaupload & FileSonic, Predator 2 (1990)(Full 1080p) free torrent downloads included crack, serial, keygen.Predator 2 (1990)(Full 1080p) Fast Download via Rapidshare Hotfile Fileserve Filesonic Megaupload, Predator 2 (1990)(Full 1080p) Torrents and Emule Download or anything related.
Leave a Comment
Your Name:
E-Mail:
Add Comments:

Enter Code: