Transformers 4 (2014)(3D OU Full 1080pp)

Download Now


Transformers 4 (2014)(3D OU Full 1080pp)

Original title Transformers: Age of Extinction (Transformers 4)
Year 2014
Duration 165 min.
Country United States
Director Michael Bay
Guion Ehren Kruger
Musica Steve Jablonsky
Photographs Amir Mokri
Starring Mark Wahlberg, Nicola Peltz, Jack Reynor, Stanley Tucci, Kelsey Grammer, Sophia Myles, Victoria Summer, TJ Miller, Han Geng, Li Bingbing, Brenton Thwaites, Cleo King, Titus Welliver, Teresa Daley, Michael Wong
Studio Paramount Pictures / Hasbro / China Movie Channel
Science fiction genre. Action | Robots. Aliens. Sequel. 3-D
Synopsis been 4 years since the tragedy in Chicago and humanity still repairing the damage, but both the Autobots and the Decepticons have disappeared from the face of the Earth. Now the US government is using the technology rescued in the siege of Chicago to develop their own Transformers. Leading the project is Joshua Joyce (Stanley Tucci), an arrogant designer who thinks that the Autobots are "technological garbage" and are ready to make some infinitely more advanced robots. Meanwhile, Cade Yeager (Mark Wahlberg), a mechanical inventor, find a Marmon semi-trailer. When trying to repair it, he discovers that the truck was not just a Transformer, but also the very same Optimus Prime, leader of the Autobots. Cade ignores what are the possible consequences of this finding..



General
Complete name : Transformers Age of Extinction (2014) 3D OU FULL 1080p.mkv
Format : Matroska
Format version : Version 2
File size : 8.34 GiB
Duration : 2h 45mn
Overall bit rate : 7 233 Kbps
Movie name : Transformers: Age of Extinction (2014) 3D OU FULL 1080p
Encoded date : UTC 2014-09-22 06:50:57
Writing application : mkvmerge v5.7.0 (The Whirlwind) built on Jul 8 2012 20:08:51
Writing library : libebml v1.2.3 + libmatroska v1.3.0
Video
ID : 1
Format : AVC
Format/Info : Advanced Video Codec
Format profile : [email protected]
Format settings, CABAC : Yes
Format settings, ReFrames : 2 frames
Muxing mode : Header stripping
Codec ID : V_MPEG4/ISO/AVC
Duration : 2h 45mn
Bit rate : 5 809 Kbps
Width : 1 920 pixels
Height : 1 080 pixels
Display aspect ratio : 16:9
Frame rate mode : Constant
Frame rate : 23.976 fps
Color space : YUV
Chroma subsampling : 4:2:0
Bit depth : 8 bits
Scan type : Progressive
Bits/(Pixel*Frame) : 0.117
Stream size : 6.70 GiB (80%)
Writing library : x264 core
Default : Yes
Forced : No
Color primaries : BT.709
Transfer characteristics : BT.709
Matrix coefficients : BT.709
Audio #1
ID : 2
Format : AC-3
Format/Info : Audio Coding 3
Mode extension : CM (complete main)
Format settings, Endianness : Big
Muxing mode : Header stripping
Codec ID : A_AC3
Duration : 2h 45mn
Bit rate mode : Constant
Bit rate : 640 Kbps
Channel count : 6 channels
Channel positions : Front: L C R, Side: L R, LFE
Sampling rate : 48.0 KHz
Bit depth : 16 bits
Compression mode : Lossy
Stream size : 756 MiB (9%)
Language : Spanish
Default : Yes
Forced : No
Audio #2
ID : 3
Format : AC-3
Format/Info : Audio Coding 3
Mode extension : CM (complete main)
Format settings, Endianness : Big
Muxing mode : Header stripping
Codec ID : A_AC3
Duration : 2h 45mn
Bit rate mode : Constant
Bit rate : 640 Kbps
Channel count : 6 channels
Channel positions : Front: L C R, Side: L R, LFE
Sampling rate : 48.0 KHz
Bit depth : 16 bits
Compression mode : Lossy
Stream size : 756 MiB (9%)
Language : English
Default : No
Forced : No
Text #1
ID : 4
Format : PGS
Muxing mode : zlib
Codec ID : S_HDMV/PGS
Codec ID/Info : The same subtitle format used on BDs/HD-DVDs
Language : Spanish
Default : No
Forced : No
Text #2
ID : 5
Format : PGS
Muxing mode : zlib
Codec ID : S_HDMV/PGS
Codec ID/Info : The same subtitle format used on BDs/HD-DVDs
Language : English
Default : No
Forced : No
Text #3
ID : 6
Format : UTF-8
Codec ID : S_TEXT/UTF8
Codec ID/Info : UTF-8 Plain Text
Default : Yes
Forced : No


Transformers 4 (2014)(3D OU Full 1080pp)
Transformers 4 (2014)(3D OU Full 1080pp)

Transformers 4 (2014)(3D OU Full 1080pp)


http://www.uploadable.ch/file/QbWEs3hrCBrg/tranf43doud.part01.rar
http://www.uploadable.ch/file/8gVQ8xqtkCCX/tranf43doud.part02.rar
http://www.uploadable.ch/file/DpsU3bADQr3V/tranf43doud.part03.rar
http://www.uploadable.ch/file/76geuyRuQ9rZ/tranf43doud.part04.rar
http://www.uploadable.ch/file/5HbhW77AuKdX/tranf43doud.part05.rar
http://www.uploadable.ch/file/przTEnc3mGxq/tranf43doud.part06.rar
http://www.uploadable.ch/file/TbZyBmetzQvh/tranf43doud.part07.rar
http://www.uploadable.ch/file/833EQEysu8RN/tranf43doud.part08.rar
http://www.uploadable.ch/file/wEezH4wayc3x/tranf43doud.part09.rar
http://www.uploadable.ch/file/tjWzcMqnzvWs/tranf43doud.part10.rar
http://www.uploadable.ch/file/D3QcCCUXaH3w/tranf43doud.part11.rar
http://www.uploadable.ch/file/wWkqRxKaXRcJ/tranf43doud.part12.rar
http://www.uploadable.ch/file/VanaUhgkWcnd/tranf43doud.part13.rar
http://www.uploadable.ch/file/t2hueYpBWEW3/tranf43doud.part14.rar
http://www.uploadable.ch/file/pPgnJqwfdEbf/tranf43doud.part15.rar
http://www.uploadable.ch/file/uGp7YHhP6Sww/tranf43doud.part16.rar
http://www.uploadable.ch/file/HsSszf2kzVJw/tranf43doud.part17.rar
http://www.uploadable.ch/file/nZVxXSmtMd8R/tranf43doud.part18.rar
http://www.uploadable.ch/file/VyQj2uZ9HtyT/tranf43doud.part19.rar
http://www.uploadable.ch/file/2rFyFzM3YqU9/tranf43doud.part20.rar
http://www.uploadable.ch/file/RVFGrvdaSsVd/tranf43doud.part21.rar
http://www.uploadable.ch/file/CDSbGe5CrvUd/tranf43doud.part22.rar
http://www.uploadable.ch/file/EyvKtTXB8qSD/tranf43doud.part23.rar
http://www.uploadable.ch/file/fsgXfsmGkwEB/tranf43doud.part24.rar
http://www.uploadable.ch/file/WKQ8pqTrsHPt/tranf43doud.part25.rar
http://www.uploadable.ch/file/wvF4qpKCgz4W/tranf43doud.part26.rar
http://www.uploadable.ch/file/47FN5jDeyZ42/tranf43doud.part27.rar
http://www.uploadable.ch/file/VZfrCgMrtNwR/tranf43doud.part28.rar
http://www.uploadable.ch/file/2j4bPmeYsUxd/tranf43doud.part29.rar
http://www.uploadable.ch/file/VnVBtYQ3zSDk/tranf43doud.part30.rar
http://www.uploadable.ch/file/FPpf7z3mwrQt/tranf43doud.part31.rar
http://www.uploadable.ch/file/KUFCY4wMGCSu/tranf43doud.part32.rar
http://www.uploadable.ch/file/PJZxTWNpnYJt/tranf43doud.part33.rar
http://www.uploadable.ch/file/6W8VhZnNTAMK/tranf43doud.part34.rar
http://www.uploadable.ch/file/BfRhj7ScpHRh/tranf43doud.part35.rar
Direct Download

Tags: Transformers

Transformers 4 (2014)(3D OU Full 1080pp) Download via Hotfile Rapidshare Fileserve Megaupload & FileSonic, Transformers 4 (2014)(3D OU Full 1080pp) free torrent downloads included crack, serial, keygen.Transformers 4 (2014)(3D OU Full 1080pp) Fast Download via Rapidshare Hotfile Fileserve Filesonic Megaupload, Transformers 4 (2014)(3D OU Full 1080pp) Torrents and Emule Download or anything related.
Leave a Comment
Your Name:
E-Mail:
Add Comments:

Enter Code: