Maleficent (2014)(3D OU FULL 1080p)

Download Now


Maleficent (2014)(3D OU FULL 1080p)

Original title Maleficent
year 2014
Duration 97 min.
Country United States
Director Robert Stromberg
Guion Linda Woolverton, Paul Dini, John Lee Hancock
Music James Newton Howard
Photography Dean Semler
Starring Angelina Jolie, Elle Fanning, Juno Temple, Sharlto Copley, Kenneth Cranham, Lesley Manville, Imelda Staunton, Sam Riley, Ella Purnell, Brenton Thwaites, Christian Wolf-Lamøy
Studio Walt Disney Pictures / Moving Picture Company (MPC) / Roth Films
Gender Fantastico. Adventure | Tales. 3-D
Synopsis Malefica is a beautiful fairy with a pure heart and breathtaking black wings. It grows in an idyllic setting, a peaceful kingdom in the woods bordering the world of men, until one day an army of human invaders threaten the harmony of their country. Maleficent is then housed in protective of his kingdom, but one day is the subject of a ruthless and unexpected betrayal, a sad and painful fact that harden his heart until it becomes stone, and to take her to launch a fearsome curse.



General
Complete name : Maleficent (2014) 3D OU FULL 1080p Latino-Ingles.mkv
Format : Matroska
Format version : Version 2
File size : 4.95 GiB
Duration : 1h 37mn
Overall bit rate : 7 276 Kbps
Movie name : Maleficent (2014) 3D OU FULL 1080p Latino-Ingles
Encoded date : UTC 2014-09-14 05:50:39
Writing application : mkvmerge v5.7.0 (The Whirlwind) built on Jul 8 2012 20:08:51
Writing library : libebml v1.2.3 + libmatroska v1.3.0
Video
ID : 1
Format : AVC
Format/Info : Advanced Video Codec
Format profile : [email protected]
Format settings, CABAC : Yes
Format settings, ReFrames : 2 frames
Muxing mode : Header stripping
Codec ID : V_MPEG4/ISO/AVC
Duration : 1h 37mn
Bit rate : 5 851 Kbps
Width : 1 920 pixels
Height : 1 080 pixels
Display aspect ratio : 16:9
Frame rate mode : Constant
Frame rate : 23.976 fps
Color space : YUV
Chroma subsampling : 4:2:0
Bit depth : 8 bits
Scan type : Progressive
Bits/(Pixel*Frame) : 0.118
Stream size : 3.98 GiB (80%)
Writing library : x264 core
Default : Yes
Forced : No
Color primaries : BT.709
Transfer characteristics : BT.709
Matrix coefficients : BT.709
Audio #1
ID : 2
Format : AC-3
Format/Info : Audio Coding 3
Mode extension : CM (complete main)
Format settings, Endianness : Big
Muxing mode : Header stripping
Codec ID : A_AC3
Duration : 1h 37mn
Bit rate mode : Constant
Bit rate : 640 Kbps
Channel count : 6 channels
Channel positions : Front: L C R, Side: L R, LFE
Sampling rate : 48.0 KHz
Bit depth : 16 bits
Compression mode : Lossy
Stream size : 446 MiB (9%)
Title : Audio Latino
Language : Spanish
Default : Yes
Forced : No
Audio #2
ID : 3
Format : AC-3
Format/Info : Audio Coding 3
Mode extension : CM (complete main)
Format settings, Endianness : Big
Muxing mode : Header stripping
Codec ID : A_AC3
Duration : 1h 37mn
Bit rate mode : Constant
Bit rate : 640 Kbps
Channel count : 6 channels
Channel positions : Front: L C R, Side: L R, LFE
Sampling rate : 48.0 KHz
Bit depth : 16 bits
Compression mode : Lossy
Stream size : 446 MiB (9%)
Title : Audio Ingles
Language : English
Default : No
Forced : No
Text #1
ID : 4
Format : PGS
Muxing mode : zlib
Codec ID : S_HDMV/PGS
Codec ID/Info : The same subtitle format used on BDs/HD-DVDs
Title : Subtitulos Ingles
Language : English
Default : No
Forced : No
Text #2
ID : 5
Format : PGS
Muxing mode : zlib
Codec ID : S_HDMV/PGS
Codec ID/Info : The same subtitle format used on BDs/HD-DVDs
Title : Subtitulos Latino
Language : Spanish
Default : No
Forced : No
Text #3
ID : 6
Format : PGS
Muxing mode : zlib
Codec ID : S_HDMV/PGS
Codec ID/Info : The same subtitle format used on BDs/HD-DVDs
Title : Subtitulos Forzados
Language : Spanish
Default : No
Forced : No
Text #4
ID : 7
Format : UTF-8
Codec ID : S_TEXT/UTF8
Codec ID/Info : UTF-8 Plain Text
Default : Yes
Forced : No


Maleficent (2014)(3D OU FULL 1080p)
Maleficent (2014)(3D OU FULL 1080p)

Maleficent (2014)(3D OU FULL 1080p)


http://www.uploadable.ch/file/Ac6Vr4A7aGvA/malif3df.part01.rar
http://www.uploadable.ch/file/btPAU9VRxR6X/malif3df.part02.rar
http://www.uploadable.ch/file/S9Xk6Y7Sg8Vf/malif3df.part03.rar
http://www.uploadable.ch/file/k2mTQDMfDwj2/malif3df.part04.rar
http://www.uploadable.ch/file/N2hq4tv67Nyt/malif3df.part05.rar
http://www.uploadable.ch/file/mNXebHVw23d6/malif3df.part06.rar
http://www.uploadable.ch/file/jTbscpr6j7bt/malif3df.part07.rar
http://www.uploadable.ch/file/BZw4MdtQGSQT/malif3df.part08.rar
http://www.uploadable.ch/file/PPdJDH4mXqFX/malif3df.part09.rar
http://www.uploadable.ch/file/skcFWrwR3YX8/malif3df.part10.rar
http://www.uploadable.ch/file/T6Kan2QTdayQ/malif3df.part11.rar
http://www.uploadable.ch/file/tNvqFA3N7xNv/malif3df.part12.rar
http://www.uploadable.ch/file/qgQbdthhftZC/malif3df.part13.rar
http://www.uploadable.ch/file/EDs4HhNuUGkc/malif3df.part14.rar
http://www.uploadable.ch/file/wpam3dc2qKWB/malif3df.part15.rar
http://www.uploadable.ch/file/WSpvGvHkYu3a/malif3df.part16.rar
http://www.uploadable.ch/file/y6jJXFzkSHsy/malif3df.part17.rar
http://www.uploadable.ch/file/b5vA4ZAe2C6E/malif3df.part18.rar
http://www.uploadable.ch/file/abuCVfHa7QRx/malif3df.part19.rar
http://www.uploadable.ch/file/aKRKXyHuWu65/malif3df.part20.rar
http://www.uploadable.ch/file/g9XNM7R4sucU/malif3df.part21.rar
Direct Download

Tags: Maleficent

Maleficent (2014)(3D OU FULL 1080p) Download via Hotfile Rapidshare Fileserve Megaupload & FileSonic, Maleficent (2014)(3D OU FULL 1080p) free torrent downloads included crack, serial, keygen.Maleficent (2014)(3D OU FULL 1080p) Fast Download via Rapidshare Hotfile Fileserve Filesonic Megaupload, Maleficent (2014)(3D OU FULL 1080p) Torrents and Emule Download or anything related.
Leave a Comment
Your Name:
E-Mail:
Add Comments:

Enter Code: