Monsters 2 Dark Continent (2014)(FULL 1080p)

Download Now


Monsters 2 Dark Continent (2014)(FULL 1080p)

Original title Monsters 2: Dark Continent
2014
Duration 119 min.
Country UK
Director Tom Green
Guion Jay Basu
Musica Neil Davidge
Photographs Christopher Ross
Cast Joe Dempsie, Johnny Harris, Sam Keeley, Sofia Boutella, Nicholas Pinnock, Uriel Emil Pollack, Parker Sawyers, Kyle Soller, Jesse Nagy, Jeff Hill
Studio Vertigo Films / Between The Eyes / International Traders
Science fiction genre. Action. Belico | Monsters. Sequela
Synopsis seven years have passed and the infected areas have spread throughout the world. Humans have been displaced from the top of the food chain, and small groups struggling to survive. American troops have been sent abroad to protect US interests, but the war is far from won. Noah, a soldier with many shots behind, is sent on a mission to search for an American soldier who has fallen in an infected area and who should settle. But when Noah unit and transport are destroyed, he was alone with a young inexperienced cadet for company, and is also the brother of the man he must kill Noah. Sequel to the 2010 independent hit, "Monster".



Monsters Dark Continent (2014) Full 1080p.mkv
Format : Matroska
Format version : Version 2
File size : 3.58 GiB
Duration : 1h 59mn
Overall bit rate : 4 300 Kbps
Movie name : Monsters Dark Continent (2014) Full 1080p
Encoded date : UTC 2015-06-02 02:49:34
Writing application : mkvmerge v5.7.0 (The Whirlwind) built on Jul 8 2012 20:08:51
Writing library : libebml v1.2.3 + libmatroska v1.3.0
Video
ID : 1
Format : AVC
Format/Info : Advanced Video Codec
Format profile : [email protected]
Format settings, CABAC : Yes
Format settings, ReFrames : 4 frames
Muxing mode : Header stripping
Codec ID : V_MPEG4/ISO/AVC
Duration : 1h 59mn
Bit rate : 3 767 Kbps
Nominal bit rate : 4 000 Kbps
Width : 1 920 pixels
Height : 1 080 pixels
Display aspect ratio : 16:9
Frame rate mode : Constant
Frame rate : 23.976 fps
Color space : YUV
Chroma subsampling : 4:2:0
Bit depth : 8 bits
Scan type : Progressive
Bits/(Pixel*Frame) : 0.076
Stream size : 3.13 GiB (88%)
Writing library : x264 core 142 r2479 dd79a61
Default : Yes
Forced : No
Color primaries : BT.709
Transfer characteristics : BT.709
Matrix coefficients : BT.709
Color range : Limited
Audio
ID : 2
Format : AC-3
Format/Info : Audio Coding 3
Mode extension : CM (complete main)
Format settings, Endianness : Big
Muxing mode : Header stripping
Codec ID : A_AC3
Duration : 1h 59mn
Bit rate mode : Constant
Bit rate : 448 Kbps
Channel(s) : 6 channels
Channel positions : Front: L C R, Side: L R, LFE
Sampling rate : 48.0 KHz
Bit depth : 16 bits
Compression mode : Lossy
Delay relative to video : -5ms
Stream size : 381 MiB (10%)
Language : English
Default : Yes
Forced : No
Text #1
ID : 3
Format : PGS
Muxing mode : zlib
Codec ID : S_HDMV/PGS
Codec ID/Info : The same subtitle format used on BDs/HD-DVDs
Language : Spanish
Default : Yes
Forced : No
Text #2
ID : 4
Format : PGS
Muxing mode : zlib
Codec ID : S_HDMV/PGS
Codec ID/Info : The same subtitle format used on BDs/HD-DVDs
Language : English
Default : No
Forced : No


Monsters 2 Dark Continent (2014)(FULL 1080p)
Monsters 2 Dark Continent (2014)(FULL 1080p)

Monsters 2 Dark Continent (2014)(FULL 1080p)

Monsters 2 Dark Continent (2014)(FULL 1080p)
http://www.uploadable.ch/file/JTMBjTt5W395/monstcond.part01.rar
http://www.uploadable.ch/file/ejqGWe6atXcc/monstcond.part02.rar
http://www.uploadable.ch/file/n5FeGjVFRq8B/monstcond.part03.rar
http://www.uploadable.ch/file/EK7y9PaTuTWm/monstcond.part04.rar
http://www.uploadable.ch/file/HHqC5EMEVaZd/monstcond.part05.rar
http://www.uploadable.ch/file/aq7jJhShKC4Y/monstcond.part06.rar
http://www.uploadable.ch/file/TzKhhy237kVF/monstcond.part07.rar
http://www.uploadable.ch/file/sJQ7qqjzYM6n/monstcond.part08.rar
http://www.uploadable.ch/file/6qvgX9BeAznx/monstcond.part09.rar
http://www.uploadable.ch/file/DvnYMq9gpc4F/monstcond.part10.rar
http://www.uploadable.ch/file/eqjhrkCFG2Xp/monstcond.part11.rar
http://www.uploadable.ch/file/ACqGk3paqFSa/monstcond.part12.rar
http://www.uploadable.ch/file/WnyMA9F9uRRu/monstcond.part13.rar
http://www.uploadable.ch/file/QPrbU5evGg9S/monstcond.part14.rar
http://www.uploadable.ch/file/scbRquCQVq6v/monstcond.part15.rar
Direct Download

Tags: Monsters, Continent

Monsters 2 Dark Continent (2014)(FULL 1080p) Download via Hotfile Rapidshare Fileserve Megaupload & FileSonic, Monsters 2 Dark Continent (2014)(FULL 1080p) free torrent downloads included crack, serial, keygen.Monsters 2 Dark Continent (2014)(FULL 1080p) Fast Download via Rapidshare Hotfile Fileserve Filesonic Megaupload, Monsters 2 Dark Continent (2014)(FULL 1080p) Torrents and Emule Download or anything related.
Leave a Comment
Your Name:
E-Mail:
Add Comments:

Enter Code: