National Treasure (2004)(FullHD 1080)

Download Now


National Treasure (2004)(FullHD 1080)
http://www.imdb.com/title/tt0368891/

Original title National Treasure
Year 2004
Length 121 min.
Country United States
Director Jon Turteltaub
Guion Marianne Wibberley, Cormac Wibberley
Music Trevor Rabin
Photography Caleb Deschanel
Starring Nicolas Cage, Sean Bean, Diane Kruger, Justin Bartha, Jon Voight, Harvey Keitel, Christopher Plummer, Mark Pellegrino, David Dayan Fisher, Stewart Finlay-McLennan, Oleg Taktarov, Don McManus.
Studio Touchstone Pictures / Jerry Bruckheimer Films
Gender Aventuras. Action
Synopsis Benjamin Franklin Gates (Nicolas Cage) has spent his life searching for the legendary treasure of the Knights Templar, of which it was said that he was hiding somewhere in the United States. For seven generations, the Gates family, following the tracks left by the Founding Fathers of America, toured the country in search of treasure. When, finally, Ben discovers the final track: hidden on the back of the Declaration of Independence map, the news reached the ears of his opponent Ian Howe (Sean Bean). To prevent the document into the hands of someone as dangerous, Gates has the help of his sidekick Riley (Justin Bartha), a genius of technology, and Abigail Chase (Diane Kruger) sexy conservative National Archives



Complete name : La Busqueda (2004) 1080p Dual.mkv
Format : Matroska
Format version : Version 2
File size : 3.30 GiB
Duration : 2h 11mn
Overall bit rate : 3 609 Kbps
Movie name : National Treasure [2004][1080p Dual]
Encoded date : UTC 2013-12-13 15:42:17
Writing application : mkvmerge v5.7.0 ('The Whirlwind') built on Jul 8 2012 20:08:51
Writing library : libebml v1.2.3 + libmatroska v1.3.0
Video
ID : 1
Format : AVC
Format/Info : Advanced Video Codec
Format profile : [email protected]
Format settings, CABAC : Yes
Format settings, ReFrames : 4 frames
Muxing mode : Header stripping
Codec ID : V_MPEG4/ISO/AVC
Duration : 2h 11mn
Bit rate : 2 739 Kbps
Width : 1 920 pixels
Height : 1 080 pixels
Display aspect ratio : 16:9
Frame rate mode : Constant
Frame rate : 23.976 fps
Color space : YUV
Chroma subsampling : 4:2:0
Bit depth : 8 bits
Scan type : Progressive
Bits/(Pixel*Frame) : 0.055
Stream size : 2.42 GiB (73%)
Writing library : x264 core 130 r2273 b3065e6
Default : Yes
Forced : No
Color primaries : BT.709
Transfer characteristics : BT.709
Matrix coefficients : BT.709
Audio #1
ID : 2
Format : AC-3
Format/Info : Audio Coding 3
Mode extension : CM (complete main)
Format settings, Endianness : Big
Muxing mode : Header stripping
Codec ID : A_AC3
Duration : 2h 11mn
Bit rate mode : Constant
Bit rate : 448 Kbps
Channel count : 6 channels
Channel positions : Front: L C R, Side: L R, LFE
Sampling rate : 48.0 KHz
Bit depth : 16 bits
Compression mode : Lossy
Stream size : 420 MiB (12%)
Title : Espanol Latino
Default : Yes
Forced : No
Audio #2
ID : 3
Format : AC-3
Format/Info : Audio Coding 3
Mode extension : CM (complete main)
Format settings, Endianness : Big
Muxing mode : Header stripping
Codec ID : A_AC3
Duration : 2h 11mn
Bit rate mode : Constant
Bit rate : 448 Kbps
Channel count : 6 channels
Channel positions : Front: L C R, Side: L R, LFE
Sampling rate : 48.0 KHz
Bit depth : 16 bits
Compression mode : Lossy
Stream size : 420 MiB (12%)
Title : Ingles
Default : No
Forced : No
Text #1
ID : 4
Format : UTF-8
Codec ID : S_TEXT/UTF8
Codec ID/Info : UTF-8 Plain Text
Default : Yes
Forced : No
Text #2
ID : 5
Format : VobSub
Muxing mode : zlib
Codec ID : S_VOBSUB
Codec ID/Info : The same subtitle format used on DVDs
Title : Subtitulos Espanol
Default : No
Forced : No


National Treasure (2004)(FullHD 1080)
National Treasure (2004)(FullHD 1080)
National Treasure (2004)(FullHD 1080)



National Treasure (2004)(FullHD 1080)
http://www.uploadable.ch/file/U6KtcRZ6BDj9/lbused1hd.part01.rar
http://www.uploadable.ch/file/4uzvRDkkkVHs/lbused1hd.part02.rar
http://www.uploadable.ch/file/j2QpqNFDBN5A/lbused1hd.part03.rar
http://www.uploadable.ch/file/etpnURcdQ5yq/lbused1hd.part04.rar
http://www.uploadable.ch/file/rT3qvPAGduzH/lbused1hd.part05.rar
http://www.uploadable.ch/file/DGQrPTWDXnc3/lbused1hd.part06.rar
http://www.uploadable.ch/file/M5kskK24WfuJ/lbused1hd.part07.rar
http://www.uploadable.ch/file/evczUedDb8Zq/lbused1hd.part08.rar
http://www.uploadable.ch/file/TCtT4RpvBTQ6/lbused1hd.part09.rar
http://www.uploadable.ch/file/ANPMRtG4TPgE/lbused1hd.part10.rar
http://www.uploadable.ch/file/Df6XkspdCa6e/lbused1hd.part11.rar
http://www.uploadable.ch/file/vPYbgHWDUna3/lbused1hd.part12.rar
http://www.uploadable.ch/file/XKc6F5QtGexs/lbused1hd.part13.rar
http://www.uploadable.ch/file/eqUB66tf3yAw/lbused1hd.part14.rar
Direct Download

Tags: National, Treasure, FullHD

National Treasure (2004)(FullHD 1080) Download via Hotfile Rapidshare Fileserve Megaupload & FileSonic, National Treasure (2004)(FullHD 1080) free torrent downloads included crack, serial, keygen.National Treasure (2004)(FullHD 1080) Fast Download via Rapidshare Hotfile Fileserve Filesonic Megaupload, National Treasure (2004)(FullHD 1080) Torrents and Emule Download or anything related.
Leave a Comment
Your Name:
E-Mail:
Add Comments:

Enter Code: