Paranormal Activity 4 (2012)(FullHD 1080)

Download Now


Paranormal Activity 4 (2012)(FullHD 1080)
http://www.imdb.com/title/tt2109184/

Titulo original Paranormal Activity 4
Ano 2012
Duracion 88 min.
Pais Estados Unidos
Director Henry Joost, Ariel Schulman
Guion Zack Estrin, Oren Peli
Fotografia Doug Emmett
Reparto Kathryn Newton, Matt Shively, Katie Featherston, Brady Allen, Aiden Lovekamp, Sprague Grayden, Stephen Dunham
Productora Paramount Pictures
Genero Terror | Sobrenatural. Casas encantadas. Secuela
Sinopsis Todo transcurre cinco anos despues de los sucesos de "Paranormal Activity 2", que termino con el secuestro de Hunter por parte de Katie. En la actualidad, Katie y Hunter, que ahora se hace llamar Robbie, se han trasladado a un nuevo barrio y sus vecinos, Alex y su familia, comienzan a experimentar sucesos paranormales que ocurren en su casa



Format : Matroska
Format version : Version 4 / Version 2
File size : 2.28 GiB
Duration : 1h 36mn
Overall bit rate : 3 375 Kbps
Movie name : Paranormal Activity 3 (2011) [Unrated 1080p Dual]
Encoded date : UTC 2013-10-31 16:40:12
Writing application : mkvmerge v6.0.0 ('Coming Up For Air') built on Jan 20 2013 09:52:00
Writing library : libebml v1.3.0 + libmatroska v1.4.0
Video
ID : 1
Format : AVC
Format/Info : Advanced Video Codec
Format profile : [email protected]
Format settings, CABAC : Yes
Format settings, ReFrames : 4 frames
Codec ID : V_MPEG4/ISO/AVC
Duration : 1h 36mn
Bit rate : 2 348 Kbps
Nominal bit rate : 2 500 Kbps
Width : 1 920 pixels
Height : 1 080 pixels
Display aspect ratio : 16:9
Frame rate mode : Constant
Frame rate : 23.976 fps
Color space : YUV
Chroma subsampling : 4:2:0
Bit depth : 8 bits
Scan type : Progressive
Bits/(Pixel*Frame) : 0.047
Stream size : 1.59 GiB (70%)
Writing library : x264 core 130 r2273 b3065e6
Default : Yes
Forced : No
Color primaries : BT.709
Transfer characteristics : BT.709
Matrix coefficients : BT.709
Audio #1
ID : 2
Format : AC-3
Format/Info : Audio Coding 3
Mode extension : CM (complete main)
Format settings, Endianness : Big
Codec ID : A_AC3
Duration : 1h 36mn
Bit rate mode : Constant
Bit rate : 640 Kbps
Channel count : 6 channels
Channel positions : Front: L C R, Side: L R, LFE
Sampling rate : 48.0 KHz
Bit depth : 16 bits
Compression mode : Lossy
Stream size : 443 MiB (19%)
Title : Espanol Latino
Default : Yes
Forced : No
Audio #2
ID : 3
Format : AC-3
Format/Info : Audio Coding 3
Mode extension : CM (complete main)
Format settings, Endianness : Big
Codec ID : A_AC3
Duration : 1h 36mn
Bit rate mode : Constant
Bit rate : 320 Kbps
Channel count : 6 channels
Channel positions : Front: L C R, Side: L R, LFE
Sampling rate : 44.1 KHz
Bit depth : 16 bits
Compression mode : Lossy
Stream size : 221 MiB (9%)
Title : Ingles
Default : No
Forced : No
Text #1
ID : 4
Format : UTF-8
Codec ID : S_TEXT/UTF8
Codec ID/Info : UTF-8 Plain Text
Title : Subtitulos Espanol
Default : No
Forced : No
Text #2
ID : 5
Format : UTF-8
Codec ID : S_TEXT/UTF8
Codec ID/Info : UTF-8 Plain Text
Default : Yes
Forced : No


Paranormal Activity 4 (2012)(FullHD 1080)
Paranormal Activity 4 (2012)(FullHD 1080)

Paranormal Activity 4 (2012)(FullHD 1080)


http://www.uploadable.ch/file/UKpkZusMb6uN/actparan4jhd.part01.rar
http://www.uploadable.ch/file/CRHuNzcJw3qS/actparan4jhd.part02.rar
http://www.uploadable.ch/file/xVcpXJ3Z5QdG/actparan4jhd.part03.rar
http://www.uploadable.ch/file/DYvMfuSezRdz/actparan4jhd.part04.rar
http://www.uploadable.ch/file/43ARXftbWe6D/actparan4jhd.part05.rar
http://www.uploadable.ch/file/MmDc42fQ98JR/actparan4jhd.part06.rar
http://www.uploadable.ch/file/2k5FKFS9ezNF/actparan4jhd.part07.rar
http://www.uploadable.ch/file/c3aP2ZCzumAG/actparan4jhd.part08.rar
http://www.uploadable.ch/file/7Na6e8QJmU7N/actparan4jhd.part09.rar
http://www.uploadable.ch/file/mM3zWBJujWu2/actparan4jhd.part10.rar


Direct Download

Tags: Paranormal, Activity, FullHD

Paranormal Activity 4 (2012)(FullHD 1080) Download via Hotfile Rapidshare Fileserve Megaupload & FileSonic, Paranormal Activity 4 (2012)(FullHD 1080) free torrent downloads included crack, serial, keygen.Paranormal Activity 4 (2012)(FullHD 1080) Fast Download via Rapidshare Hotfile Fileserve Filesonic Megaupload, Paranormal Activity 4 (2012)(FullHD 1080) Torrents and Emule Download or anything related.
Leave a Comment
Your Name:
E-Mail:
Add Comments:

Enter Code: