Pirates of the Caribbean 1 (2003)(FullHD 1080)

Download Now


Pirates of the Caribbean 1 (2003)(FullHD 1080)
http://www.imdb.com/title/tt0325980/

Original title Pirates of the Caribbean: The Curse of the Black Pearl
year 2003
Length 143 min .
Country United States
Director Gore Verbinski
Guion Ted Elliott & Terry Rossio (Story: Ted Elliott, Terry Rossio , Stuart Beattie , Jay Wolpert )
Klaus Badelt Music
Photography Dariusz Wolski
Starring Johnny Depp , Geoffrey Rush, Orlando Bloom , Keira Knightley, Jonathan Pryce , Mackenzie Crook, Kevin McNally , Jack Davenport , Lee Arenberg, Zoe Saldana, Giles New , Angus Barnett, Damian O'Hare , Treva Etienne , David Bailie , Michael Berry Jr. , Isaac C. Singleton Jr.
Studio Walt Disney Pictures / Jerry Bruckheimer Films
Gender Aventuras. Fantastico. Comedy . Action | Pirates. Sea Adventures . Supernatural . Swashbuckler . XVIII century
Synopsis Caribbean Sea , XVIII century. The adventurer Captain Jack Sparrow Pirates in Caribbean waters , but their adventures end when his enemy , Captain Barbossa, after stealing his ship, the Black Pearl , attacks the town of Port Royal and kidnaps Elizabeth Swann , the daughter of the Governor. Will Turner, a childhood friend of Elizabeth , joins Jack to rescue and recover the Black Pearl . But Barbossa and his crew are victims of a spell that condemns them to live forever and transformed each night into living skeletons. The spell can only be broken if they return a piece of Aztec gold and Saldan a blood debt . The rescue of the beautiful Elizabeth will be a difficult task, as the curse is real and will be difficult to deal with those who can not die



Complete name : Piratas Del Caribe 1 (2003) 1080p Dual.mkv
Format : Matroska
Format version : Version 4 / Version 2
File size : 3.30 GiB
Duration : 2h 23mn
Overall bit rate : 3 298 Kbps
Movie name : Pirates of the Caribbean: The Curse of the Black Pearl [2003][1080p Dual]
Encoded date : UTC 2013-11-11 19:30:25
Writing application : mkvmerge v6.4.1 ('Omega Point') built on Sep 16 2013 22:05:10
Writing library : libebml v1.3.0 + libmatroska v1.4.1
Video
ID : 1
Format : AVC
Format/Info : Advanced Video Codec
Format profile : [email protected]
Format settings, CABAC : Yes
Format settings, ReFrames : 4 frames
Codec ID : V_MPEG4/ISO/AVC
Duration : 2h 23mn
Bit rate : 2 400 Kbps
Width : 1 920 pixels
Height : 1 080 pixels
Display aspect ratio : 16:9
Frame rate mode : Constant
Frame rate : 23.976 fps
Color space : YUV
Chroma subsampling : 4:2:0
Bit depth : 8 bits
Scan type : Progressive
Bits/(Pixel*Frame) : 0.048
Stream size : 2.34 GiB (71%)
Writing library : x264 core 133 r2334 a3ac64b
Default : Yes
Forced : No
Audio #1
ID : 2
Format : AC-3
Format/Info : Audio Coding 3
Mode extension : CM (complete main)
Format settings, Endianness : Big
Codec ID : A_AC3
Duration : 2h 23mn
Bit rate mode : Constant
Bit rate : 448 Kbps
Channel count : 6 channels
Channel positions : Front: L C R, Side: L R, LFE
Sampling rate : 48.0 KHz
Bit depth : 16 bits
Compression mode : Lossy
Delay relative to video : 24ms
Stream size : 459 MiB (14%)
Title : Espanol Latino
Default : Yes
Forced : No
Audio #2
ID : 3
Format : AC-3
Format/Info : Audio Coding 3
Mode extension : CM (complete main)
Format settings, Endianness : Big
Codec ID : A_AC3
Duration : 2h 23mn
Bit rate mode : Constant
Bit rate : 448 Kbps
Channel count : 6 channels
Channel positions : Front: L C R, Side: L R, LFE
Sampling rate : 48.0 KHz
Bit depth : 16 bits
Compression mode : Lossy
Stream size : 459 MiB (14%)
Title : Ingles
Default : No
Forced : No
Text #1
ID : 4
Format : UTF-8
Codec ID : S_TEXT/UTF8
Codec ID/Info : UTF-8 Plain Text
Default : Yes
Forced : No
Text #2
ID : 5
Format : UTF-8
Codec ID : S_TEXT/UTF8
Codec ID/Info : UTF-8 Plain Text
Title : Subtitulos Espanol
Default : No
Forced : No


Pirates of the Caribbean 1 (2003)(FullHD 1080)
Pirates of the Caribbean 1 (2003)(FullHD 1080)

Pirates of the Caribbean 1 (2003)(FullHD 1080)


http://www.uploadable.ch/file/Hqtvwd2bFtB2/pircar1hd.part01.rar
http://www.uploadable.ch/file/aPQuZfG8aFSH/pircar1hd.part02.rar
http://www.uploadable.ch/file/vUcfAePKVnEh/pircar1hd.part03.rar
http://www.uploadable.ch/file/qCewYdfvqsZp/pircar1hd.part04.rar
http://www.uploadable.ch/file/vEFGk3X9PjCU/pircar1hd.part05.rar
http://www.uploadable.ch/file/2WdtHMfNBdzy/pircar1hd.part06.rar
http://www.uploadable.ch/file/eRrEHR7nBrTf/pircar1hd.part07.rar
http://www.uploadable.ch/file/nSKqN2aAPtet/pircar1hd.part08.rar
http://www.uploadable.ch/file/ZnEePZKQVUbG/pircar1hd.part09.rar
http://www.uploadable.ch/file/xWCBSDMMq5C5/pircar1hd.part10.rar
http://www.uploadable.ch/file/F6HD76umJeAu/pircar1hd.part11.rar
http://www.uploadable.ch/file/eNf2tSS5yEVh/pircar1hd.part12.rar
http://www.uploadable.ch/file/6rH5tTVQRT5m/pircar1hd.part13.rar
http://www.uploadable.ch/file/pK9XwwgWRSVj/pircar1hd.part14.rar

Direct Download

Tags: Pirates, Caribbean, FullHD

Pirates of the Caribbean 1 (2003)(FullHD 1080) Download via Hotfile Rapidshare Fileserve Megaupload & FileSonic, Pirates of the Caribbean 1 (2003)(FullHD 1080) free torrent downloads included crack, serial, keygen.Pirates of the Caribbean 1 (2003)(FullHD 1080) Fast Download via Rapidshare Hotfile Fileserve Filesonic Megaupload, Pirates of the Caribbean 1 (2003)(FullHD 1080) Torrents and Emule Download or anything related.
Leave a Comment
Your Name:
E-Mail:
Add Comments:

Enter Code: