Pitch Black (2000)(FullHD 1080)

Download Now


Pitch Black (2000)(FullHD 1080)
http://www.imdb.com/title/tt0134847/

Original title Pitch Black
year 2000
Country United States
Director David Twohy
Guion Jim Wheat, Ken Wheat, David Twohy
Music Graeme Revell
Photographs David Eggby
Starring Vin Diesel, Radha Mitchell, Cole Hauser, Keith David, Lewis Fitz-Gerald, Claudia Black, Rhiana Griffith, John Moore, Simon Burke, Les Chantery, Sam Sari, Firass Dirani Ric Anderson, Vic Wilson, Angela Moore
Studio Gramercy Pictures
Science fiction genre. Terror | Aliens
Synopsis During an interstellar journey, a space freighter breaks down because of an asteroid storm and was forced to make an emergency landing in the dying part of the passage. A dangerous murderer, Riddick, part of the load, flees the scene, leaving the survivors with two concerns, and some dangerous nocturnal creatures that come to the surface when the planet's three suns are obscured because of an eclipse



Complete name : Pitch Black (2000) 1080p FULL Dual.mkv
Format : Matroska
Format version : Version 4 / Version 2
File size : 8.95 GiB
Duration : 1h 48mn
Overall bit rate : 11.8 Mbps
Movie name : Pitch Black [2003][1080p FULL Dual]
Encoded date : UTC 2015-03-12 07:01:07
Writing application : mkvmerge v7.6.0 (Garden of Dreams) 64bit
Writing library : libebml v1.3.1 + libmatroska v1.4.2
DURATION : 00:00:25.100000000
NUMBER_OF_FRAMES : 1
NUMBER_OF_BYTES : 104
_STATISTICS_WRITING_APP : mkvmerge v7.6.0 (Garden of Dreams) 64bit
_STATISTICS_WRITING_DATE_UT : 2015-03-12 07:01:07
_STATISTICS_TAGS : BPS DURATION NUMBER_OF_FRAMES NUMBER_OF_BYTES
Video
ID : 1
Format : AVC
Format/Info : Advanced Video Codec
Format profile : [email protected]
Format settings, CABAC : Yes
Format settings, ReFrames : 4 frames
Codec ID : V_MPEG4/ISO/AVC
Duration : 1h 48mn
Bit rate : 10.8 Mbps
Width : 1 920 pixels
Height : 1 080 pixels
Display aspect ratio : 16:9
Frame rate mode : Constant
Frame rate : 23.976 fps
Color space : YUV
Chroma subsampling : 4:2:0
Bit depth : 8 bits
Scan type : Progressive
Bits/(Pixel*Frame) : 0.217
Stream size : 7.80 GiB (87%)
Writing library : x264 core 142 r2479 dd79a61
Default : Yes
Forced : No
Color primaries : BT.709
Transfer characteristics : BT.709
Matrix coefficients : BT.709
Color range : Limited
DURATION : 01:48:21.079000000
NUMBER_OF_FRAMES : 155870
NUMBER_OF_BYTES : 8553574350
_STATISTICS_WRITING_APP : mkvmerge v7.6.0 (Garden of Dreams) 64bit
_STATISTICS_WRITING_DATE_UT : 2015-03-12 07:01:07
_STATISTICS_TAGS : BPS DURATION NUMBER_OF_FRAMES NUMBER_OF_BYTES
Audio #1
ID : 2
Format : AC-3
Format/Info : Audio Coding 3
Mode extension : CM (complete main)
Format settings, Endianness : Big
Codec ID : A_AC3
Duration : 1h 48mn
Bit rate mode : Constant
Bit rate : 640 Kbps
Channel(s) : 6 channels
Channel positions : Front: L C R, Side: L R, LFE
Sampling rate : 48.0 KHz
Bit depth : 16 bits
Compression mode : Lossy
Delay relative to video : -5ms
Stream size : 496 MiB (5%)
Title : spanish
Default : Yes
Forced : No
DURATION : 01:48:21.024000000
NUMBER_OF_FRAMES : 203158
NUMBER_OF_BYTES : 520084480
_STATISTICS_WRITING_APP : mkvmerge v7.6.0 (Garden of Dreams) 64bit
_STATISTICS_WRITING_DATE_UT : 2015-03-12 07:01:07
_STATISTICS_TAGS : BPS DURATION NUMBER_OF_FRAMES NUMBER_OF_BYTES
Audio #2
ID : 3
Format : AC-3
Format/Info : Audio Coding 3
Mode extension : CM (complete main)
Format settings, Endianness : Big
Codec ID : A_AC3
Duration : 1h 48mn
Bit rate mode : Constant
Bit rate : 640 Kbps
Channel(s) : 6 channels
Channel positions : Front: L C R, Side: L R, LFE
Sampling rate : 48.0 KHz
Bit depth : 16 bits
Compression mode : Lossy
Delay relative to video : -5ms
Stream size : 496 MiB (5%)
Title : english
Default : No
Forced : No
DURATION : 01:48:21.024000000
NUMBER_OF_FRAMES : 203158
NUMBER_OF_BYTES : 520084480
_STATISTICS_WRITING_APP : mkvmerge v7.6.0 (Garden of Dreams) 64bit
_STATISTICS_WRITING_DATE_UT : 2015-03-12 07:01:07
_STATISTICS_TAGS : BPS DURATION NUMBER_OF_FRAMES NUMBER_OF_BYTES
Text #1
ID : 4
Format : UTF-8
Codec ID : S_TEXT/UTF8
Codec ID/Info : UTF-8 Plain Text
Default : Yes
Forced : No
DURATION : 01:40:43.287000000
NUMBER_OF_FRAMES : 1630
NUMBER_OF_BYTES : 4439520
_STATISTICS_WRITING_APP : mkvmerge v7.6.0 (Garden of Dreams) 64bit
_STATISTICS_WRITING_DATE_UT : 2015-03-12 07:01:07
_STATISTICS_TAGS : BPS DURATION NUMBER_OF_FRAMES NUMBER_OF_BYTES
Text #2
ID : 5
Format : PGS
Muxing mode : zlib
Codec ID : S_HDMV/PGS
Codec ID/Info : The same subtitle format used on BDs/HD-DVDs
Title : spanish
Default : No
Forced : No
DURATION : 01:40:43.288000000
NUMBER_OF_FRAMES : 1957
NUMBER_OF_BYTES : 6033788
_STATISTICS_WRITING_APP : mkvmerge v7.6.0 (Garden of Dreams) 64bit
_STATISTICS_WRITING_DATE_UT : 2015-03-12 07:01:07
_STATISTICS_TAGS : BPS DURATION NUMBER_OF_FRAMES NUMBER_OF_BYTES
Text #3
ID : 6
Format : PGS
Muxing mode : zlib
Codec ID : S_HDMV/PGS
Codec ID/Info : The same subtitle format used on BDs/HD-DVDs
Title : english
Default : No
Forced : No


Pitch Black (2000)(FullHD 1080)
Pitch Black (2000)(FullHD 1080)

Pitch Black (2000)(FullHD 1080)


http://www.uploadable.ch/file/AVkJUXWS5j5V/pblhdd.part01.rar
http://www.uploadable.ch/file/xbhRtchQPXs6/pblhdd.part02.rar
http://www.uploadable.ch/file/U7CFwx7Jva8U/pblhdd.part03.rar
http://www.uploadable.ch/file/RE6tNXdMEs5W/pblhdd.part04.rar
http://www.uploadable.ch/file/r8qVaWMhyT5c/pblhdd.part05.rar
http://www.uploadable.ch/file/nhXj2dv4cGzQ/pblhdd.part06.rar
http://www.uploadable.ch/file/EAv9AzuRPy8q/pblhdd.part07.rar
http://www.uploadable.ch/file/SaEe8uHdeAbQ/pblhdd.part08.rar
http://www.uploadable.ch/file/6Z8WNdKEC2ny/pblhdd.part09.rar
http://www.uploadable.ch/file/3btbTaTPuuVM/pblhdd.part10.rar
http://www.uploadable.ch/file/5gyEBUhTexR6/pblhdd.part11.rar
http://www.uploadable.ch/file/5NZFAGnFYzDZ/pblhdd.part12.rar
http://www.uploadable.ch/file/GqNqgReVdpHd/pblhdd.part13.rar
http://www.uploadable.ch/file/mB3ktUGtE277/pblhdd.part14.rar
http://www.uploadable.ch/file/kVm6WVWKsdg3/pblhdd.part15.rar
http://www.uploadable.ch/file/6MUS77Z4nSZC/pblhdd.part16.rar
http://www.uploadable.ch/file/gybFe5PbH6bg/pblhdd.part17.rar
http://www.uploadable.ch/file/evtSsmdWmtF8/pblhdd.part18.rar
http://www.uploadable.ch/file/vNzt3YWZNXnm/pblhdd.part19.rar
http://www.uploadable.ch/file/eJdurJZCduke/pblhdd.part20.rar
http://www.uploadable.ch/file/rKqYHAgYWYS9/pblhdd.part21.rar
http://www.uploadable.ch/file/AznHZ5u83bh7/pblhdd.part22.rar
http://www.uploadable.ch/file/wcbxDbKnEc8F/pblhdd.part23.rar
http://www.uploadable.ch/file/kSGTyW6yDhNT/pblhdd.part24.rar
http://www.uploadable.ch/file/TQef4tcCXFwb/pblhdd.part25.rar
http://www.uploadable.ch/file/BdGdV8zUcGnv/pblhdd.part26.rar
http://www.uploadable.ch/file/ymDvm7Xgx7KS/pblhdd.part27.rar
http://www.uploadable.ch/file/jnUqRhRfSj7c/pblhdd.part28.rar
http://www.uploadable.ch/file/JJHjHaZSdp4f/pblhdd.part29.rar
http://www.uploadable.ch/file/RvF7JxNNcNYa/pblhdd.part30.rar
http://www.uploadable.ch/file/3T5qU9wr9wzv/pblhdd.part31.rar
http://www.uploadable.ch/file/9MgJGQ9HkqNk/pblhdd.part32.rar
http://www.uploadable.ch/file/vp5XPPeFV2dD/pblhdd.part33.rar
http://www.uploadable.ch/file/5jpAKHWXZFNz/pblhdd.part34.rar
http://www.uploadable.ch/file/KWSB584eCmGV/pblhdd.part35.rar
http://www.uploadable.ch/file/XHwF5NY5zgYB/pblhdd.part36.rar
http://www.uploadable.ch/file/he2xJbWZRgeD/pblhdd.part37.rar
Direct Download

Tags: FullHD

Pitch Black (2000)(FullHD 1080) Download via Hotfile Rapidshare Fileserve Megaupload & FileSonic, Pitch Black (2000)(FullHD 1080) free torrent downloads included crack, serial, keygen.Pitch Black (2000)(FullHD 1080) Fast Download via Rapidshare Hotfile Fileserve Filesonic Megaupload, Pitch Black (2000)(FullHD 1080) Torrents and Emule Download or anything related.
Leave a Comment
Your Name:
E-Mail:
Add Comments:

Enter Code: