Police Academy 4 (1987)(FullHD 1080)

Download Now


Police Academy 4 (1987)(FullHD 1080)

ORIGINAL TITLE Police Academy 4: Citizens on Patrol
ANO 1987
COUNTRY USA
DIRECTOR Jim Drake
SCRIPT Gene Quintano (Characters: Neal Israel & Pat Proft)
MUSIC Robert Folk
PHOTOGRAPHY Robert Saad
CAST Steve Guttenberg, Bubba Smith, David Graf, Michael Winslow, Sharon Stone, Marion Ramsey, Leslie Easterbrook, GW Bailey, George Gaynes, Tim Kazurinsky, Bobcat Goldthwait, David Spade
PRODUCER Warner Bros.
GENRE Comedy | Policiaco. Crime. sequel
SYNOPSIS Recruited by Major Lassard, a group of volunteers arrives at the Academy to be trained in a program of civil patrols.



General
Police Academy 4 (1987) [FULL 1080p Dual]
Format : Matroska
Format version : Version 4 / Version 2
File size : 2.14 GiB
Duration : 1h 27mn
Overall bit rate : 3 513 Kbps
Movie name : Police Academy 4 (1987) [FULL 1080p Dual]
Encoded date : UTC 2014-01-28 14:22:23
Writing application : mkvmerge v6.0.0 (Coming Up For Air) built on Jan 20 2013 09:52:00
Writing library : libebml v1.3.0 + libmatroska v1.4.0
Video
ID : 1
Format : AVC
Format/Info : Advanced Video Codec
Format profile : [email protected]
Format settings, CABAC : Yes
Format settings, ReFrames : 2 frames
Codec ID : V_MPEG4/ISO/AVC
Duration : 1h 27mn
Bit rate : 2 931 Kbps
Width : 1 920 pixels
Height : 1 080 pixels
Display aspect ratio : 16:9
Frame rate mode : Constant
Frame rate : 23.976 fps
Color space : YUV
Chroma subsampling : 4:2:0
Bit depth : 8 bits
Scan type : Progressive
Bits/(Pixel*Frame) : 0.059
Stream size : 1.79 GiB (83%)
Writing library : x264 core
Default : Yes
Forced : No
Color primaries : BT.709
Transfer characteristics : BT.709
Matrix coefficients : BT.709
Audio #1
ID : 2
Format : AC-3
Format/Info : Audio Coding 3
Mode extension : CM (complete main)
Format settings, Endianness : Big
Codec ID : A_AC3
Duration : 1h 27mn
Bit rate mode : Constant
Bit rate : 192 Kbps
Channel count : 2 channels
Channel positions : Front: L R
Sampling rate : 48.0 KHz
Bit depth : 16 bits
Compression mode : Lossy
Stream size : 120 MiB (5%)
Title : Audio Latino
Default : Yes
Forced : No
Audio #2
ID : 3
Format : AC-3
Format/Info : Audio Coding 3
Mode extension : CM (complete main)
Format settings, Endianness : Big
Codec ID : A_AC3
Duration : 1h 27mn
Bit rate mode : Constant
Bit rate : 320 Kbps
Channel count : 2 channels
Channel positions : Front: L R
Sampling rate : 44.1 KHz
Bit depth : 16 bits
Compression mode : Lossy
Stream size : 200 MiB (9%)
Title : Audio Ingles
Default : No
Forced : No
Text #1
ID : 4
Format : UTF-8
Codec ID : S_TEXT/UTF8
Codec ID/Info : UTF-8 Plain Text
Title : Subtitulos Latino
Default : No
Forced : No
Text #2
ID : 5
Format : UTF-8
Codec ID : S_TEXT/UTF8
Codec ID/Info : UTF-8 Plain Text
Title : Subtitulos Ingles
Default : No
Forced : No
Text #3
ID : 6
Format : UTF-8
Codec ID : S_TEXT/UTF8
Codec ID/Info : UTF-8 Plain Text
Default : Yes
Forced : No


Police Academy 4 (1987)(FullHD 1080)
Police Academy 4 (1987)(FullHD 1080)


http://www.uploadable.ch/file/mkcsVXqy4B49/polacd4hd.part01.rar
http://www.uploadable.ch/file/WUb3vMem5g45/polacd4hd.part02.rar
http://www.uploadable.ch/file/Q7pVAqAaUtKv/polacd4hd.part03.rar
http://www.uploadable.ch/file/6YU7nVz5rm5V/polacd4hd.part04.rar
http://www.uploadable.ch/file/F5Jz5asvD9AX/polacd4hd.part05.rar
http://www.uploadable.ch/file/gRKZutYkpFzh/polacd4hd.part06.rar
http://www.uploadable.ch/file/f7sRj9vy6nWV/polacd4hd.part07.rar
http://www.uploadable.ch/file/4MGahnXTQFJ5/polacd4hd.part08.rar
http://www.uploadable.ch/file/kywgpbpxvP4a/polacd4hd.part09.rar
Direct Download

Tags: Police, Academy, FullHD

Police Academy 4 (1987)(FullHD 1080) Download via Hotfile Rapidshare Fileserve Megaupload & FileSonic, Police Academy 4 (1987)(FullHD 1080) free torrent downloads included crack, serial, keygen.Police Academy 4 (1987)(FullHD 1080) Fast Download via Rapidshare Hotfile Fileserve Filesonic Megaupload, Police Academy 4 (1987)(FullHD 1080) Torrents and Emule Download or anything related.
Leave a Comment
Your Name:
E-Mail:
Add Comments:

Enter Code: