Police Academy 6 (1989)(FullHD 1080)

Download Now


Police Academy 6 (1989)(FullHD 1080)

ORIGINAL TITLE Police Academy 6: City Under Seige
ANO 1989
COUNTRY USA
DIRECTOR Peter Bonerz
Stephen J. GUION Curwick (Characters: Neal Israel & Pat Proft)
MUSIC Robert Folk
PHOTOGRAPHY Charles Rosher Jr.
CAST Bubba Smith, David Graf, Michael Winslow, Marion Ramsey, Leslie Easterbrook, Kenneth Mars, George Gaynes, Lance Kinsey, GW Bailey, Allison Mack
PRODUCER Warner Bros.
GENRE Comedy | Policiaco. Crime. sequel
SYNOPSIS Lassard commander and his motley crew of cops are assigned the difficult mission to stop a gang of bank robbers and jewelry that has terrorized the city. The band, formed by three offenders whose criminal success is inversely proportional to their intelligence, they are also the bane of Captain Harris, with the commander, did not stop to stop the latter responsible for the theft, the evil Mr. Big.



General
Police Academy 6 (1989) [FULL 1080p Dual]
Format : Matroska
Format version : Version 4 / Version 2
File size : 2.04 GiB
Duration : 1h 23mn
Overall bit rate : 3 482 Kbps
Movie name : Police Academy 6 (1989) [FULL 1080p Dual]
Encoded date : UTC 2014-01-28 14:31:44
Writing application : mkvmerge v6.0.0 (Coming Up For Air) built on Jan 20 2013 09:52:00
Writing library : libebml v1.3.0 + libmatroska v1.4.0
Video
ID : 1
Format : AVC
Format/Info : Advanced Video Codec
Format profile : [email protected]
Format settings, CABAC : Yes
Format settings, ReFrames : 2 frames
Codec ID : V_MPEG4/ISO/AVC
Duration : 1h 23mn
Bit rate : 2 901 Kbps
Width : 1 920 pixels
Height : 1 080 pixels
Display aspect ratio : 16:9
Frame rate mode : Constant
Frame rate : 23.976 fps
Color space : YUV
Chroma subsampling : 4:2:0
Bit depth : 8 bits
Scan type : Progressive
Bits/(Pixel*Frame) : 0.058
Stream size : 1.70 GiB (83%)
Writing library : x264 core
Default : Yes
Forced : No
Color primaries : BT.709
Transfer characteristics : BT.709
Matrix coefficients : BT.709
Audio #1
ID : 2
Format : AC-3
Format/Info : Audio Coding 3
Mode extension : CM (complete main)
Format settings, Endianness : Big
Codec ID : A_AC3
Duration : 1h 23mn
Bit rate mode : Constant
Bit rate : 192 Kbps
Channel count : 2 channels
Channel positions : Front: L R
Sampling rate : 48.0 KHz
Bit depth : 16 bits
Compression mode : Lossy
Stream size : 115 MiB (6%)
Title : Audio Latino
Default : Yes
Forced : No
Audio #2
ID : 3
Format : AC-3
Format/Info : Audio Coding 3
Mode extension : CM (complete main)
Format settings, Endianness : Big
Codec ID : A_AC3
Duration : 1h 23mn
Bit rate mode : Constant
Bit rate : 320 Kbps
Channel count : 2 channels
Channel positions : Front: L R
Sampling rate : 44.1 KHz
Bit depth : 16 bits
Compression mode : Lossy
Stream size : 192 MiB (9%)
Title : Audio Ingles
Default : No
Forced : No
Text #1
ID : 4
Format : UTF-8
Codec ID : S_TEXT/UTF8
Codec ID/Info : UTF-8 Plain Text
Title : Subtitulos Latino
Default : No
Forced : No
Text #2
ID : 5
Format : UTF-8
Codec ID : S_TEXT/UTF8
Codec ID/Info : UTF-8 Plain Text
Title : Subtitulos Ingles
Default : No
Forced : No
Text #3
ID : 6
Format : UTF-8
Codec ID : S_TEXT/UTF8
Codec ID/Info : UTF-8 Plain Text
Default : Yes
Forced : No


Police Academy 6 (1989)(FullHD 1080)
Police Academy 6 (1989)(FullHD 1080)

Police Academy 6 (1989)(FullHD 1080)


http://www.uploadable.ch/file/BPNveq7WwWTP/polacd6hd.part01.rar
http://www.uploadable.ch/file/UmP7wRZVNqRX/polacd6hd.part02.rar
http://www.uploadable.ch/file/69jnYBhU8Aq3/polacd6hd.part03.rar
http://www.uploadable.ch/file/55ZfNvWejFnD/polacd6hd.part04.rar
http://www.uploadable.ch/file/YavgQM4qrt7w/polacd6hd.part05.rar
http://www.uploadable.ch/file/pcPY4sYKCCtn/polacd6hd.part06.rar
http://www.uploadable.ch/file/ew6X8qC2ZnB6/polacd6hd.part07.rar
http://www.uploadable.ch/file/aDq628B4nAxP/polacd6hd.part08.rar
http://www.uploadable.ch/file/tDfWjDuEsbSQ/polacd6hd.part09.rar
Direct Download

Tags: Police, Academy, FullHD

Police Academy 6 (1989)(FullHD 1080) Download via Hotfile Rapidshare Fileserve Megaupload & FileSonic, Police Academy 6 (1989)(FullHD 1080) free torrent downloads included crack, serial, keygen.Police Academy 6 (1989)(FullHD 1080) Fast Download via Rapidshare Hotfile Fileserve Filesonic Megaupload, Police Academy 6 (1989)(FullHD 1080) Torrents and Emule Download or anything related.
Leave a Comment
Your Name:
E-Mail:
Add Comments:

Enter Code: