Poltergeist (1982)(Full HD 1080)

Download Now


Poltergeist (1982)(Full HD 1080)

Original title Poltergeist
year 1982
Duration 114 min.
Country United States
Director Tobe Hooper
Guion Steven Spielberg, Michael Grais, Mark Victor
Music Jerry Goldsmith
Matthew F. Leonetti Photographs
Cast JoBeth Williams, Craig T. Nelson, Beatrice Straight, Heather O'Rourke, Oliver Robins, Zelda Rubinstein, Dominique Dunne, Richard Lawson, James Karen, Martin Casella, Michael McManus
Studio Metro-Goldwyn-Mayer (MGM)
Gender Terror. Fantastico | Haunted Houses. Supernatural. Ghosts. family
Synopsis A middle class American family moves in to an idyllic neighborhood, but inside the house strange things begin to happen, paranormal phenomena for which no explanation possible.



General
Poltergeist (1982) [FULL 1080p Dual].mkv
Format : Matroska
Format version : Version 4 / Version 2
File size : 3.00 GiB
Duration : 1h 54mn
Overall bit rate : 3 748 Kbps
Movie name : Poltergeist (1982) [FULL 1080p Dual]
Encoded date : UTC 2014-01-16 01:39:50
Writing application : mkvmerge v6.0.0 (Coming Up For Air) built on Jan 20 2013 09:52:00
Writing library : libebml v1.3.0 + libmatroska v1.4.0
Video
ID : 1
Format : AVC
Format/Info : Advanced Video Codec
Format profile : [email protected]
Format settings, CABAC : Yes
Format settings, ReFrames : 2 frames
Codec ID : V_MPEG4/ISO/AVC
Duration : 1h 54mn
Bit rate : 2 905 Kbps
Width : 1 920 pixels
Height : 1 080 pixels
Display aspect ratio : 16:9
Frame rate mode : Constant
Frame rate : 23.976 fps
Color space : YUV
Chroma subsampling : 4:2:0
Bit depth : 8 bits
Scan type : Progressive
Bits/(Pixel*Frame) : 0.058
Stream size : 2.32 GiB (78%)
Writing library : x264 core
Default : Yes
Forced : No
Color primaries : BT.709
Transfer characteristics : BT.709
Matrix coefficients : BT.709
Audio #1
ID : 2
Format : AC-3
Format/Info : Audio Coding 3
Mode extension : CM (complete main)
Format settings, Endianness : Big
Codec ID : A_AC3
Duration : 1h 54mn
Bit rate mode : Constant
Bit rate : 448 Kbps
Channel count : 6 channels
Channel positions : Front: L C R, Side: L R, LFE
Sampling rate : 48.0 KHz
Bit depth : 16 bits
Compression mode : Lossy
Stream size : 367 MiB (12%)
Title : spanish
Default : Yes
Forced : No
Audio #2
ID : 3
Format : AC-3
Format/Info : Audio Coding 3
Mode extension : CM (complete main)
Format settings, Endianness : Big
Codec ID : A_AC3
Duration : 1h 54mn
Bit rate mode : Constant
Bit rate : 320 Kbps
Channel count : 6 channels
Channel positions : Front: L C R, Side: L R, LFE
Sampling rate : 44.1 KHz
Bit depth : 16 bits
Compression mode : Lossy
Stream size : 262 MiB (9%)
Title : english
Default : No
Forced : No
Text #1
ID : 4
Format : VobSub
Muxing mode : zlib
Codec ID : S_VOBSUB
Codec ID/Info : The same subtitle format used on DVDs
Title : spanish
Default : No
Forced : No
Text #2
ID : 5
Format : VobSub
Muxing mode : zlib
Codec ID : S_VOBSUB
Codec ID/Info : The same subtitle format used on DVDs
Title : english
Default : No
Forced : No
Text #3
ID : 6
Format : UTF-8
Codec ID : S_TEXT/UTF8
Codec ID/Info : UTF-8 Plain Text
Default : Yes
Forced : No


Poltergeist (1982)(Full HD 1080)
Poltergeist (1982)(Full HD 1080)

Poltergeist (1982)(Full HD 1080)


http://www.uploadable.ch/file/jZX4y2pd9K27/poltg1hd.part01.rar
http://www.uploadable.ch/file/jK9CZeJ6Uhjq/poltg1hd.part02.rar
http://www.uploadable.ch/file/XH2R9ysEbpFT/poltg1hd.part03.rar
http://www.uploadable.ch/file/tYpXeRRHu5bu/poltg1hd.part04.rar
http://www.uploadable.ch/file/auH3nCWaYKy8/poltg1hd.part05.rar
http://www.uploadable.ch/file/hTzwTe6ha8eF/poltg1hd.part06.rar
http://www.uploadable.ch/file/qjg6bQPGaDFm/poltg1hd.part07.rar
http://www.uploadable.ch/file/RkDBeHzSg5S3/poltg1hd.part08.rar
http://www.uploadable.ch/file/N4jA7sxwV5nj/poltg1hd.part09.rar
http://www.uploadable.ch/file/3utJMDSBFRKg/poltg1hd.part10.rar
http://www.uploadable.ch/file/pvvrzsNEgbvs/poltg1hd.part11.rar
http://www.uploadable.ch/file/rjYmuUGbswPd/poltg1hd.part12.rar
http://www.uploadable.ch/file/7eNV8KUNJaZh/poltg1hd.part13.rar
Direct Download

Tags: Poltergeist

Poltergeist (1982)(Full HD 1080) Download via Hotfile Rapidshare Fileserve Megaupload & FileSonic, Poltergeist (1982)(Full HD 1080) free torrent downloads included crack, serial, keygen.Poltergeist (1982)(Full HD 1080) Fast Download via Rapidshare Hotfile Fileserve Filesonic Megaupload, Poltergeist (1982)(Full HD 1080) Torrents and Emule Download or anything related.
Leave a Comment
Your Name:
E-Mail:
Add Comments:

Enter Code: