Rocky III (1982)(FullHD 1080)

Download Now


Rocky III (1982)(FullHD 1080)
http://www.imdb.com/title/tt0084602/

Original title Rocky III
year 1982
Duration 99 min.
Country United States
Director Sylvester Stallone
Guion Sylvester Stallone
Bill Conti Music
Photography Bill Butler
Starring Sylvester Stallone, Talia Shire, Burgess Meredith, Mr. T, Carl Weathers, Tony Burton, Hulk Hogan, Ian Fried
Studio United Artists
Genre Drama | Sport. Boxing. sequela
Synopsis After having defended the title ten times world boxing champion Rocky Balboa (Sylvester Stallone) has decided to retire. However Clubber Lang (Mr. T), an aggressive fighter who has been climbing positions based on destroying his opponents, want to snatch the title. Despite the refusal of Rocky, Clubber gets cause to accept the challenge, and this time the result of combat is presumed rather uncertain



Format : Matroska
Format version : Version 4 / Version 2
File size : 2.57 GiB
Duration : 1h 39mn
Overall bit rate : 3 700 Kbps
Movie name : Rocky 3 (1982) [FULL 1080p Dual]
Encoded date : UTC 2013-12-09 14:22:17
Writing application : mkvmerge v6.0.0 ('Coming Up For Air') built on Jan 20 2013 09:52:00
Writing library : libebml v1.3.0 + libmatroska v1.4.0
Video
ID : 1
Format : AVC
Format/Info : Advanced Video Codec
Format profile : [email protected]
Format settings, CABAC : Yes
Format settings, ReFrames : 2 frames
Codec ID : V_MPEG4/ISO/AVC
Duration : 1h 39mn
Bit rate : 2 730 Kbps
Width : 1 920 pixels
Height : 1 080 pixels
Display aspect ratio : 16:9
Frame rate mode : Constant
Frame rate : 23.976 fps
Color space : YUV
Chroma subsampling : 4:2:0
Bit depth : 8 bits
Scan type : Progressive
Bits/(Pixel*Frame) : 0.055
Stream size : 1.90 GiB (74%)
Writing library : x264 core
Default : Yes
Forced : No
Color primaries : BT.709
Transfer characteristics : BT.709
Matrix coefficients : BT.709
Audio #1
ID : 2
Format : AC-3
Format/Info : Audio Coding 3
Mode extension : CM (complete main)
Format settings, Endianness : Big
Codec ID : A_AC3
Duration : 1h 39mn
Bit rate mode : Constant
Bit rate : 448 Kbps
Channel count : 6 channels
Channel positions : Front: L C R, Side: L R, LFE
Sampling rate : 48.0 KHz
Bit depth : 16 bits
Compression mode : Lossy
Stream size : 319 MiB (12%)
Title : Audio Latino
Default : Yes
Forced : No
Audio #2
ID : 3
Format : AC-3
Format/Info : Audio Coding 3
Mode extension : CM (complete main)
Format settings, Endianness : Big
Codec ID : A_AC3
Duration : 1h 39mn
Bit rate mode : Constant
Bit rate : 448 Kbps
Channel count : 6 channels
Channel positions : Front: L C R, Side: L R, LFE
Sampling rate : 48.0 KHz
Bit depth : 16 bits
Compression mode : Lossy
Stream size : 319 MiB (12%)
Title : Audio Ingles
Default : No
Forced : No
Text #1
ID : 4
Format : VobSub
Muxing mode : zlib
Codec ID : S_VOBSUB
Codec ID/Info : The same subtitle format used on DVDs
Title : Subtitulos Latino
Default : No
Forced : No
Text #2
ID : 5
Format : VobSub
Muxing mode : zlib
Codec ID : S_VOBSUB
Codec ID/Info : The same subtitle format used on DVDs
Title : Subtitulos Ingles
Default : No
Forced : No
Text #3
ID : 6
Format : UTF-8
Codec ID : S_TEXT/UTF8
Codec ID/Info : UTF-8 Plain Text
Default : Yes
Forced : No


Rocky III (1982)(FullHD 1080)
Rocky III (1982)(FullHD 1080)

Rocky III (1982)(FullHD 1080)



Rocky III (1982)(FullHD 1080)
http://www.uploadable.ch/file/wn4sZ62XRuu6/rocy3hd.part01.rar
http://www.uploadable.ch/file/5fZQMhjmfSYQ/rocy3hd.part02.rar
http://www.uploadable.ch/file/nBj8Ebp4tnFU/rocy3hd.part03.rar
http://www.uploadable.ch/file/E7mCaQGhd38f/rocy3hd.part04.rar
http://www.uploadable.ch/file/2URMsa5d42g6/rocy3hd.part05.rar
http://www.uploadable.ch/file/CRCNe2Etjtqu/rocy3hd.part06.rar
http://www.uploadable.ch/file/bUnG2QSe7MZA/rocy3hd.part07.rar
http://www.uploadable.ch/file/GtfpaFXac8RC/rocy3hd.part08.rar
http://www.uploadable.ch/file/PTN8Py6srdDR/rocy3hd.part09.rar
http://www.uploadable.ch/file/3XTFUxCyavgR/rocy3hd.part10.rar
http://www.uploadable.ch/file/6Khg3k6ThmCc/rocy3hd.part11.rar
Direct Download

Tags: FullHD

Rocky III (1982)(FullHD 1080) Download via Hotfile Rapidshare Fileserve Megaupload & FileSonic, Rocky III (1982)(FullHD 1080) free torrent downloads included crack, serial, keygen.Rocky III (1982)(FullHD 1080) Fast Download via Rapidshare Hotfile Fileserve Filesonic Megaupload, Rocky III (1982)(FullHD 1080) Torrents and Emule Download or anything related.
Leave a Comment
Your Name:
E-Mail:
Add Comments:

Enter Code: