Red (2010)(FullHD 1080)

Download Now


Red (2010)(FullHD 1080)
http://www.imdb.com/title/tt1245526/

Original title Red
year 2010
Duration 111 min.
Country United States
Director Robert Schwentke
Guion Jon Hoeber, Erich Hoeber (Comic: Warren Ellis)
Music Christophe Beck
Photography Florian Ballhaus
Starring Bruce Willis, John Malkovich, Morgan Freeman, Helen Mirren, Karl Urban, Mary-Louise Parker, Brian Cox, Richard Dreyfuss, Rebecca Pidgeon, Ernest Borgnine, James Remar, Julian McMahon
Studio Di Bonaventura Pictures / Summit Entertainment
GENRE Action. Comedy | Comic
Synopsis Frank (Bruce Willis), Joe (Morgan Freeman), Marvin (John Malkovich) and Victoria (Helen Mirren) are special agents have retired, to which the new administration in Washington wants to see dead. The reason: they were the best agents of the CIA, but they know too. Comic adaptation of Warren Ellis.



General
Complete name : Red (2010) FULL HD 1080p Audio Dual.mkv
Format : Matroska
Format version : Version 2
File size : 7.12 GiB
Duration : 1h 51mn
Overall bit rate : 9 173 Kbps
Movie name : Red (2010) FULL HD 1080p Audio Dual
Encoded date : UTC 2015-03-13 08:11:03
Writing application : mkvmerge v5.7.0 ('The Whirlwind') built on Jul 8 2012 20:08:51
Writing library : libebml v1.2.3 + libmatroska v1.3.0
Video
ID : 1
Format : AVC
Format/Info : Advanced Video Codec
Format profile : [email protected]
Format settings, CABAC : Yes
Format settings, ReFrames : 4 frames
Muxing mode : Header stripping
Codec ID : V_MPEG4/ISO/AVC
Duration : 1h 51mn
Bit rate : 8 000 Kbps
Width : 1 920 pixels
Height : 1 080 pixels
Display aspect ratio : 16:9
Frame rate mode : Constant
Frame rate : 23.976 fps
Color space : YUV
Chroma subsampling : 4:2:0
Bit depth : 8 bits
Scan type : Progressive
Bits/(Pixel*Frame) : 0.161
Stream size : 5.99 GiB (84%)
Writing library : x264 core 130 r2273 b3065e6
Default : Yes
Forced : No
Color primaries : BT.709
Transfer characteristics : BT.709
Matrix coefficients : BT.709
Color range : Limited
Audio #1
ID : 2
Format : AC-3
Format/Info : Audio Coding 3
Mode extension : CM (complete main)
Format settings, Endianness : Big
Muxing mode : Header stripping
Codec ID : A_AC3
Duration : 1h 51mn
Bit rate mode : Constant
Bit rate : 640 Kbps
Channel(s) : 6 channels
Channel positions : Front: L C R, Side: L R, LFE
Sampling rate : 48.0 KHz
Bit depth : 16 bits
Compression mode : Lossy
Stream size : 509 MiB (7%)
Language : Spanish
Default : Yes
Forced : No
Audio #2
ID : 3
Format : AC-3
Format/Info : Audio Coding 3
Mode extension : CM (complete main)
Format settings, Endianness : Big
Muxing mode : Header stripping
Codec ID : A_AC3
Duration : 1h 51mn
Bit rate mode : Constant
Bit rate : 640 Kbps
Channel(s) : 6 channels
Channel positions : Front: L C R, Side: L R, LFE
Sampling rate : 48.0 KHz
Bit depth : 16 bits
Compression mode : Lossy
Stream size : 509 MiB (7%)
Language : English
Default : No
Forced : No
Text #1
ID : 4
Format : PGS
Muxing mode : zlib
Codec ID : S_HDMV/PGS
Codec ID/Info : The same subtitle format used on BDs/HD-DVDs
Language : English
Default : No
Forced : No
Text #2
ID : 5
Format : PGS
Muxing mode : zlib
Codec ID : S_HDMV/PGS
Codec ID/Info : The same subtitle format used on BDs/HD-DVDs
Language : Spanish
Default : No
Forced : No
Text #3
ID : 6
Format : UTF-8
Codec ID : S_TEXT/UTF8
Codec ID/Info : UTF-8 Plain Text
Default : Yes
Forced : No


Red (2010)(FullHD 1080)

Red (2010)(FullHD 1080)
Red (2010)(FullHD 1080)

Red (2010)(FullHD 1080)
http://www.uploadable.ch/file/hrr6z57ZQ33r/red1hdfd.part01.rar
http://www.uploadable.ch/file/aDZSZfntNVV9/red1hdfd.part02.rar
http://www.uploadable.ch/file/5DjMJMaevjVR/red1hdfd.part03.rar
http://www.uploadable.ch/file/Nu3B2aRQKCgY/red1hdfd.part04.rar
http://www.uploadable.ch/file/YNejseCP5rkK/red1hdfd.part05.rar
http://www.uploadable.ch/file/JuBTuSXfmMHA/red1hdfd.part06.rar
http://www.uploadable.ch/file/tyaq7vPM4NKD/red1hdfd.part07.rar
http://www.uploadable.ch/file/rT56ZKtsv23F/red1hdfd.part08.rar
http://www.uploadable.ch/file/yggt6rRUjPVp/red1hdfd.part09.rar
http://www.uploadable.ch/file/haFNrWSt6Qd8/red1hdfd.part10.rar
http://www.uploadable.ch/file/VrCquftChe6q/red1hdfd.part11.rar
http://www.uploadable.ch/file/UkNQvN9D8Jzm/red1hdfd.part12.rar
http://www.uploadable.ch/file/D8VN4stwGQne/red1hdfd.part13.rar
http://www.uploadable.ch/file/Cd8wsUhWMXjE/red1hdfd.part14.rar
http://www.uploadable.ch/file/uP2jPqs5y5SU/red1hdfd.part15.rar
http://www.uploadable.ch/file/mqJsAt6PHmRB/red1hdfd.part16.rar
http://www.uploadable.ch/file/h5HrCxeRTGKR/red1hdfd.part17.rar
http://www.uploadable.ch/file/EHAGBqmeCkBR/red1hdfd.part18.rar
http://www.uploadable.ch/file/FHw2x4kV6Z6D/red1hdfd.part19.rar
http://www.uploadable.ch/file/CmXga4jmFq7r/red1hdfd.part20.rar
http://www.uploadable.ch/file/3HPw7M2pkYUp/red1hdfd.part21.rar
http://www.uploadable.ch/file/QT8yJQD8pyta/red1hdfd.part22.rar
http://www.uploadable.ch/file/mucgghcTt2wv/red1hdfd.part23.rar
http://www.uploadable.ch/file/bhjy7KKhtd2m/red1hdfd.part24.rar
http://www.uploadable.ch/file/6Ac8MXYd542A/red1hdfd.part25.rar
http://www.uploadable.ch/file/mvztPvXDKsBJ/red1hdfd.part26.rar
http://www.uploadable.ch/file/sVFYrU4Z67rT/red1hdfd.part27.rar
http://www.uploadable.ch/file/7CxvuMzV4PgF/red1hdfd.part28.rar
http://www.uploadable.ch/file/ESd7zPajfkjw/red1hdfd.part29.rar
http://www.uploadable.ch/file/EQ7ffSbVXBVn/red1hdfd.part30.rar
Direct Download

Tags: FullHD

Red (2010)(FullHD 1080) Download via Hotfile Rapidshare Fileserve Megaupload & FileSonic, Red (2010)(FullHD 1080) free torrent downloads included crack, serial, keygen.Red (2010)(FullHD 1080) Fast Download via Rapidshare Hotfile Fileserve Filesonic Megaupload, Red (2010)(FullHD 1080) Torrents and Emule Download or anything related.
Leave a Comment
Your Name:
E-Mail:
Add Comments:

Enter Code: