Saving Mr. Banks (2013)(FullHD 1080)

Download Now


Saving Mr. Banks (2013)(FullHD 1080)
http://www.imdb.com/title/tt2140373/

Original title Saving Mr. Banks
year 2013
Length 125 min.
Country United States
Director John Lee Hancock
Guion Sue Smith, Kelly Marcel
Music Thomas Newman
Photography John Schwartzman
Starring Emma Thompson, Tom Hanks, Colin Farrell, Paul Giamatti, Jason Schwartzman, Bradley Whitford, Ruth Wilson, BJ Novak, Rachel Griffiths, Kathy Baker
Studio Walt Disney Pictures / Ruby Films / Essential Media & Entertainment
Genre Drama | Film In Film. Literature. Based on a true story. 60 Years. childhood
Synopsis For fourteen years, Walt Disney (Tom Hanks) who tirelessly attempt Australian writer PL Travers (Emma Thompson) cinematographic ceded the rights to his first and most popular novel, 'Mary Poppins', which was finally brought to the big screen in 1964..



General
Complete name: Saving.Mr.Banks.LATINO.2013.1080p.BluRay.x264-SPARKS.mkv
Format: Matroska
File size: 9.30 GiB
Duration: 2h 5mn
Overall bit rate: 10.6 Mbps
Encoded date: UTC 2014-03-02 13:01:30
Writing application: mkvmerge v5.7.0 ('The Whirlwind') built on Jul 8 2012 20:08:51
Writing library: libebml v1.2.3 + libmatroska v1.3.0
Video
ID: 1
Format: AVC
Format/Info : Advanced Video Codec
Format profile: [email protected]
Format settings, CABAC: Yes
Format settings, ReFrames: 5 frames
Format settings, GOP: M=4, N=32
Muxing mode: Container [email protected]
Codec ID: V_MPEG4/ISO/AVC
Duration: 2h 5mn
Bit rate: 8 449 Kbps
Width: 1 920 pixels
Height: 800 pixels
Display aspect ratio: 2.40:1
Frame rate: 23.976 fps
Color space: YUV
Chroma subsampling: 4:2:0
Bit depth: 8 bits
Scan type: Progressive
Bits/(Pixel Frame): 0.229
Stream size: 7.23 GiB (78%)
Writing library: x264 core 140 r2377 1ca7bb9
Audio 1
ID: 2
Format: DTS
Format/Info: Digital Theater Systems
Codec ID: A_DTS
Duration: 2h 5mn
Bit rate mode: Constant
Bit rate: 1 510 Kbps
Channel(s): 6 channels
Channel positions: Front: L C R, Side: L R, LFE
Sampling rate: 48.0 KHz
Bit depth: 24 bits
Stream size: 1.33 GiB (14%)
Title: English
Audio 2
ID: 3
Format: AC-3
Format/Info: Audio Coding 3
Mode extension: CM (complete main)
Codec ID: A_AC3
Duration: 2h 5mn
Bit rate mode: Constant
Bit rate: 640 Kbps
Channel(s): 6 channels
Channel positions: Front: L C R, Side: L R, LFE
Sampling rate: 48.0 KHz
Bit depth: 16 bits
Stream size: 575 MiB (6%)
Title: Espanol Latino
Language: Spanish


Saving Mr. Banks (2013)(FullHD 1080)
Saving Mr. Banks (2013)(FullHD 1080)

Saving Mr. Banks (2013)(FullHD 1080)


http://www.uploadable.ch/file/JzupeqF4XU8F/sambanhd.part01.rar
http://www.uploadable.ch/file/BSqvkHetC8Ap/sambanhd.part02.rar
http://www.uploadable.ch/file/eHh4gGdEvDBh/sambanhd.part03.rar
http://www.uploadable.ch/file/6AqMVtuEywdn/sambanhd.part04.rar
http://www.uploadable.ch/file/SFKu7YxUKURR/sambanhd.part05.rar
http://www.uploadable.ch/file/WpVrhFCFFub6/sambanhd.part06.rar
http://www.uploadable.ch/file/XkQ7ZqF67uVp/sambanhd.part07.rar
http://www.uploadable.ch/file/5ea96myB2K8J/sambanhd.part08.rar
http://www.uploadable.ch/file/XEvShKeGqRnD/sambanhd.part09.rar
http://www.uploadable.ch/file/67U64Zx4mwT7/sambanhd.part10.rar
http://www.uploadable.ch/file/sAU4GFkUaYeT/sambanhd.part11.rar
http://www.uploadable.ch/file/up8rJCAJ2CMB/sambanhd.part12.rar
http://www.uploadable.ch/file/gygZXjmypYcs/sambanhd.part13.rar
http://www.uploadable.ch/file/5STb7dJa4HYc/sambanhd.part14.rar
http://www.uploadable.ch/file/cDPuyuDTN2pa/sambanhd.part15.rar
http://www.uploadable.ch/file/wBD5JfhFpe3q/sambanhd.part16.rar
http://www.uploadable.ch/file/pGzbzkThJgyW/sambanhd.part17.rar
http://www.uploadable.ch/file/8ZHbYrWJjMsW/sambanhd.part18.rar
http://www.uploadable.ch/file/KJcP4BEDUyU7/sambanhd.part19.rar
http://www.uploadable.ch/file/FBUGzmDXQx7d/sambanhd.part20.rar
http://www.uploadable.ch/file/SSRGqQ7R4XwV/sambanhd.part21.rar
http://www.uploadable.ch/file/WhvEqfmG3pzY/sambanhd.part22.rar
http://www.uploadable.ch/file/Bj2P6J9HPFJG/sambanhd.part23.rar
http://www.uploadable.ch/file/VNEuEC2TMxd5/sambanhd.part24.rar


Direct Download

Tags: Saving, FullHD

Saving Mr. Banks (2013)(FullHD 1080) Download via Hotfile Rapidshare Fileserve Megaupload & FileSonic, Saving Mr. Banks (2013)(FullHD 1080) free torrent downloads included crack, serial, keygen.Saving Mr. Banks (2013)(FullHD 1080) Fast Download via Rapidshare Hotfile Fileserve Filesonic Megaupload, Saving Mr. Banks (2013)(FullHD 1080) Torrents and Emule Download or anything related.
Leave a Comment
Your Name:
E-Mail:
Add Comments:

Enter Code: