The Lion King (1994)(FullHD 1080)

Download Now


The Lion King (1994)(FullHD 1080)
http://www.imdb.com/title/tt0110357/

Original title The Lion King
year 1994
Duration 85 min.
Country United States
Director Rob Minkoff, Roger Allers
Guion Irene Mecchi, Jonathan Roberts, Linda Woolverton
Hans Zimmer Music (Songs: Elton John, Tim Rice)
photography Animation
Cast Animation
Studio Walt Disney Pictures
Genre Animation. Drama. Adventures. Comedy. Musical. Children | Africa. animals
Overview The African savannah is the setting in which the adventures occur Simba, a small lion who is the heir to the throne. However, being unjustly accused by the evil Scar of the death of his father, is forced into exile. During his exile, will make good friends and try to recover back what rightfully belongs.



Format : Matroska
Format version : Version 4 / Version 2
File size : 2.40 GiB
Duration : 1h 28mn
Overall bit rate : 3 886 Kbps
Movie name : El Rey Leon (1994) [FULL 1080p Dual]
Encoded date : UTC 2013-12-16 20:02:15
Writing application : mkvmerge v6.0.0 ('Coming Up For Air') built on Jan 20 2013 09:52:00
Writing library : libebml v1.3.0 + libmatroska v1.4.0
Video
ID : 1
Format : AVC
Format/Info : Advanced Video Codec
Format profile : [email protected]
Format settings, CABAC : Yes
Format settings, ReFrames : 2 frames
Codec ID : V_MPEG4/ISO/AVC
Duration : 1h 28mn
Bit rate : 2 913 Kbps
Width : 1 920 pixels
Height : 1 080 pixels
Display aspect ratio : 16:9
Frame rate mode : Constant
Frame rate : 23.976 fps
Color space : YUV
Chroma subsampling : 4:2:0
Bit depth : 8 bits
Scan type : Progressive
Bits/(Pixel*Frame) : 0.059
Stream size : 1.80 GiB (75%)
Title : WwW.CinemaniaHD.org
Writing library : x264 core
Default : Yes
Forced : No
Color primaries : BT.709
Transfer characteristics : BT.709
Matrix coefficients : BT.709
Audio #1
ID : 2
Format : AC-3
Format/Info : Audio Coding 3
Mode extension : CM (complete main)
Format settings, Endianness : Big
Codec ID : A_AC3
Duration : 1h 28mn
Bit rate mode : Constant
Bit rate : 448 Kbps
Channel count : 6 channels
Channel positions : Front: L C R, Side: L R, LFE
Sampling rate : 48.0 KHz
Bit depth : 16 bits
Compression mode : Lossy
Stream size : 283 MiB (12%)
Title : Audio Latino
Default : Yes
Forced : No
Audio #2
ID : 3
Format : AC-3
Format/Info : Audio Coding 3
Mode extension : CM (complete main)
Format settings, Endianness : Big
Codec ID : A_AC3
Duration : 1h 28mn
Bit rate mode : Constant
Bit rate : 448 Kbps
Channel count : 6 channels
Channel positions : Front: L C R, Side: L R, LFE
Sampling rate : 48.0 KHz
Bit depth : 16 bits
Compression mode : Lossy
Stream size : 283 MiB (12%)
Title : Audio Ingles
Default : No
Forced : No
Text #1
ID : 4
Format : VobSub
Muxing mode : zlib
Codec ID : S_VOBSUB
Codec ID/Info : The same subtitle format used on DVDs
Title : Subtitulos Latino
Default : No
Forced : No
Text #2
ID : 5
Format : VobSub
Muxing mode : zlib
Codec ID : S_VOBSUB
Codec ID/Info : The same subtitle format used on DVDs
Title : Subtitulos Ingles
Default : No
Forced : No
Text #3
ID : 6
Format : UTF-8
Codec ID : S_TEXT/UTF8
Codec ID/Info : UTF-8 Plain Text
Default : Yes
Forced : No


The Lion King (1994)(FullHD 1080)
The Lion King (1994)(FullHD 1080)

The Lion King (1994)(FullHD 1080)



The Lion King (1994)(FullHD 1080)
http://www.uploadable.ch/file/f3rVJ2qdm5J2/lionkinj1hd.part01.rar
http://www.uploadable.ch/file/Q89nSaJB89Fc/lionkinj1hd.part02.rar
http://www.uploadable.ch/file/YWyeD7WTuXeA/lionkinj1hd.part03.rar
http://www.uploadable.ch/file/VM46W8YUWSjj/lionkinj1hd.part04.rar
http://www.uploadable.ch/file/W8S8RVTZFwWN/lionkinj1hd.part05.rar
http://www.uploadable.ch/file/VkQWsuBzXkja/lionkinj1hd.part06.rar
http://www.uploadable.ch/file/Z9MQ3gsQEVcc/lionkinj1hd.part07.rar
http://www.uploadable.ch/file/DMb89d33PPNC/lionkinj1hd.part08.rar
http://www.uploadable.ch/file/AS2dUbpX8qTj/lionkinj1hd.part09.rar
http://www.uploadable.ch/file/HBnchn6J4xdN/lionkinj1hd.part10.rar
Direct Download

Tags: FullHD

The Lion King (1994)(FullHD 1080) Download via Hotfile Rapidshare Fileserve Megaupload & FileSonic, The Lion King (1994)(FullHD 1080) free torrent downloads included crack, serial, keygen.The Lion King (1994)(FullHD 1080) Fast Download via Rapidshare Hotfile Fileserve Filesonic Megaupload, The Lion King (1994)(FullHD 1080) Torrents and Emule Download or anything related.
Leave a Comment
Your Name:
E-Mail:
Add Comments:

Enter Code: