The Lion King II (1998)(FullHD 1080)

Download Now


The Lion King II (1998)(FullHD 1080)
http://www.imdb.com/title/tt0120131/

Original title The Lion King II: Simba's Pride
year 1998
Duration 81 min.
Country United States
Director Darrell Rooney, Rob LaDuca
Guion Cindy Marcus, Flip Kobler
Musica Nick Glennie-Smith (Subject: Hans Zimmer)
photography Animation
Cast Animation
Studio Walt Disney Pictures
Genre Animation. Comedy. Romance. Musical. Children | Sequel. Africa. animals
Synopsis Kiara, Simba's eldest daughter and heiress of his dominions, and hands of their protectors, looking for adventure, enters gloomy territories that are outside the boundaries of the kingdom of his father. On his way he meets Kovu, a young cub: achieving peace between the inhabitants of the dark lands and territory Simba depend on these two.



Format : Matroska
Format version : Version 4 / Version 2
File size : 2.20 GiB
Duration : 1h 20mn
Overall bit rate : 3 899 Kbps
Movie name : El Rey Leon 2 (1998) [FULL 1080p Dual]
Encoded date : UTC 2013-12-16 20:10:08
Writing application : mkvmerge v6.0.0 ('Coming Up For Air') built on Jan 20 2013 09:52:00
Writing library : libebml v1.3.0 + libmatroska v1.4.0
Video
ID : 1
Format : AVC
Format/Info : Advanced Video Codec
Format profile : [email protected]
Format settings, CABAC : Yes
Format settings, ReFrames : 2 frames
Codec ID : V_MPEG4/ISO/AVC
Duration : 1h 20mn
Bit rate : 2 925 Kbps
Width : 1 920 pixels
Height : 1 080 pixels
Display aspect ratio : 16:9
Frame rate mode : Constant
Frame rate : 23.976 fps
Color space : YUV
Chroma subsampling : 4:2:0
Bit depth : 8 bits
Scan type : Progressive
Bits/(Pixel*Frame) : 0.059
Stream size : 1.65 GiB (75%)
Title : WwW.CinemaniaHD.org
Writing library : x264 core
Default : Yes
Forced : No
Color primaries : BT.709
Transfer characteristics : BT.709
Matrix coefficients : BT.709
Audio #1
ID : 2
Format : AC-3
Format/Info : Audio Coding 3
Mode extension : CM (complete main)
Format settings, Endianness : Big
Codec ID : A_AC3
Duration : 1h 20mn
Bit rate mode : Constant
Bit rate : 448 Kbps
Channel count : 6 channels
Channel positions : Front: L C R, Side: L R, LFE
Sampling rate : 48.0 KHz
Bit depth : 16 bits
Compression mode : Lossy
Stream size : 259 MiB (11%)
Title : Audio Latino
Default : Yes
Forced : No
Audio #2
ID : 3
Format : AC-3
Format/Info : Audio Coding 3
Mode extension : CM (complete main)
Format settings, Endianness : Big
Codec ID : A_AC3
Duration : 1h 20mn
Bit rate mode : Constant
Bit rate : 448 Kbps
Channel count : 6 channels
Channel positions : Front: L C R, Side: L R, LFE
Sampling rate : 48.0 KHz
Bit depth : 16 bits
Compression mode : Lossy
Stream size : 259 MiB (11%)
Title : Audio Ingles
Default : No
Forced : No
Text #1
ID : 4
Format : VobSub
Muxing mode : zlib
Codec ID : S_VOBSUB
Codec ID/Info : The same subtitle format used on DVDs
Title : Subtitulos Latino
Default : No
Forced : No
Text #2
ID : 5
Format : VobSub
Muxing mode : zlib
Codec ID : S_VOBSUB
Codec ID/Info : The same subtitle format used on DVDs
Title : Subtitulos Ingles
Default : No
Forced : No
Text #3
ID : 6
Format : UTF-8
Codec ID : S_TEXT/UTF8
Codec ID/Info : UTF-8 Plain Text
Default : Yes
Forced : No


The Lion King II (1998)(FullHD 1080)
The Lion King II (1998)(FullHD 1080)

The Lion King II (1998)(FullHD 1080)



The Lion King II (1998)(FullHD 1080)
http://www.uploadable.ch/file/8fQMzfRBY3CD/lionkinj2hd.part01.rar
http://www.uploadable.ch/file/DByAr7EZb5W4/lionkinj2hd.part02.rar
http://www.uploadable.ch/file/YCZtEBnjsyuZ/lionkinj2hd.part03.rar
http://www.uploadable.ch/file/qd29SSuNNKwU/lionkinj2hd.part04.rar
http://www.uploadable.ch/file/87mE5D52wQAU/lionkinj2hd.part05.rar
http://www.uploadable.ch/file/XHFB8DG5fXyp/lionkinj2hd.part06.rar
http://www.uploadable.ch/file/CCQKBAmZDBrE/lionkinj2hd.part07.rar
http://www.uploadable.ch/file/B2pwjYdHW4zT/lionkinj2hd.part08.rar
http://www.uploadable.ch/file/6bh936FEa3fs/lionkinj2hd.part09.rar
Direct Download

Tags: FullHD

The Lion King II (1998)(FullHD 1080) Download via Hotfile Rapidshare Fileserve Megaupload & FileSonic, The Lion King II (1998)(FullHD 1080) free torrent downloads included crack, serial, keygen.The Lion King II (1998)(FullHD 1080) Fast Download via Rapidshare Hotfile Fileserve Filesonic Megaupload, The Lion King II (1998)(FullHD 1080) Torrents and Emule Download or anything related.
Leave a Comment
Your Name:
E-Mail:
Add Comments:

Enter Code: