Thor The Dark World (2013)(FullHD 1080)

Download Now


Thor The Dark World (2013)(FullHD 1080)
http://www.imdb.com/title/tt1981115/

Original title Thor : The Dark World (Thor 2)
year 2013
Country United States
Director Alan Taylor
Guion Christopher Yost, Christopher Markus , Stephen McFeely , Robert Rodat , Don Payne ( Comic Jack Kirby, Stan Lee, Larry Lieber )
Music Brian Tyler
Photography Kramer Morgenthau
Starring Chris Hemsworth, Natalie Portman , Tom Hiddleston , Anthony Hopkins, Christopher Eccleston , Kat Dennings , Jaimie Alexander , Idris Elba, Rene Russo , Stellan Skarsgard , Jonathan Howard, Adewale Akinnuoye- Agbaje , Ray Stevenson , Zachary Levi , Chris O'Dowd , Tadanobu Asano , Alice Krige , Tony Curran
Studio Marvel Entertainment / Marvel Studios
Gender Fantastico. Action . Adventure | Mythology . Superheroes . Comic . Marvel Comics. Sequel .
Synopsis In "Thor : The Dark World" , Thor struggles to restore order throughout the cosmos ... but an ancient race led by the vengeful Malekith returns to plunge the universe back into darkness. Thor faces an enemy that even Odin and Asgard can cope and must embark on their most dangerous journey while staff. This trip will meet with Jane Foster and forced him to sacrifice everything to save the world.



general
Complete name: Thor.The.Dark.World.LATINO.2013.1080p.BluRay.x264 - SPARKS.mkv
Format: Matroska
File size: 8.15 GiB
Duration : 1h 52mn
Overall bit rate: 10.4 Mbps
Encoded date: UTC 07/02/2014 2:38:21
Writing application: mkvmerge v5.7.0 ('The Whirlwind ' ) built on July 8, 2012 20:08:51
Writing library: libebml v1.2.3 + libmatroska v1.3.0
Video
ID : 1
Format : AVC
Format / Info: Advanced Video Codec
Format profile: [email protected]
Format settings , CABAC : Yes
Format settings , reframes : 5 frames
Format settings , GOP: M = 4 , N = 32
Muxing mode: Container profile = [email protected]
Codec ID : V_MPEG4/ISO/AVC
Duration : 1h 52mn
Bit rate: 8263 Kbps
Width : 1920 pixels
Height: 800 pixels
Display aspect ratio : 2.40:1
Frame rate: 23.976 fps
Color space : YUV
Chroma subsampling : 4:2:0
Bit depth: 8 bits
Scan type: Progressive
Bits / ( Pixel * Frame) : 0.224
Stream size: 6.30 GiB (77% )
Writing library: x264 core 140 r2377 1ca7bb9
Audio # 1
ID : 2
Format: DTS
Format / Info : Digital Theater Systems
Codec ID : A_DTS
Duration : 1h 52mn
Bit rate mode: Constant
Bit rate: 1 510 Kbps
Channel ( s ) : 6 channels
Channel positions : Front : L C R, Side: L R, LFE
Sampling rate: 48.0 KHz
Bit depth: 24 bits
Stream size: 1.18 GiB (15 % )
Title : Inglés
Audio # 2
ID : 3
Format: AC-3
Format / Info : Audio Coding 3
Mode extension: CM (complete main)
Codec ID : A_AC3
Duration : 1h 52mn
Bit rate mode: Constant
Bit rate: 640 Kbps
Channel ( s ) : 6 channels
Channel positions : Front : L C R, Side: L R, LFE
Sampling rate: 48.0 KHz
Bit depth: 16 bits
Stream size: 513 MiB (6 % )
Title : Spanish Latino
Language: English
Text
ID : 4
Format: UTF -8
Codec ID : S_TEXT/UTF8
Codec ID / Info : UTF -8 Plain Text
Title : Inglés
AUDIO : English / Spanish Latino
Subtitles : English / Spanish Latino


Thor The Dark World (2013)(FullHD 1080)
Thor The Dark World (2013)(FullHD 1080)

Thor The Dark World (2013)(FullHD 1080)


http://www.uploadable.ch/file/RyfajejmYNCN/thodarwohd.part01.rar
http://www.uploadable.ch/file/DEHJhgEfzK2s/thodarwohd.part02.rar
http://www.uploadable.ch/file/SQR537vtykNF/thodarwohd.part03.rar
http://www.uploadable.ch/file/ETqSeenSyzwc/thodarwohd.part04.rar
http://www.uploadable.ch/file/ahZzeQuk3qzY/thodarwohd.part05.rar
http://www.uploadable.ch/file/Wj6j3DsjHzVm/thodarwohd.part06.rar
http://www.uploadable.ch/file/dQrR3EqmHDrX/thodarwohd.part07.rar
http://www.uploadable.ch/file/FCZp95QWyDQz/thodarwohd.part08.rar
http://www.uploadable.ch/file/QHJQ6G2txCZW/thodarwohd.part09.rar
http://www.uploadable.ch/file/skUmTz69qn8x/thodarwohd.part10.rar
http://www.uploadable.ch/file/jcrrBwt3z46b/thodarwohd.part11.rar
http://www.uploadable.ch/file/UhhuEVuChY5j/thodarwohd.part12.rar
http://www.uploadable.ch/file/JVBv5cmKSCVs/thodarwohd.part13.rar
http://www.uploadable.ch/file/bmZJnmPaVQQ7/thodarwohd.part14.rar
http://www.uploadable.ch/file/PSbG5ygxjnab/thodarwohd.part15.rar
http://www.uploadable.ch/file/TdHvtKWdfPfb/thodarwohd.part16.rar
http://www.uploadable.ch/file/e9G8PBSdTVHH/thodarwohd.part17.rar
http://www.uploadable.ch/file/BcecHFTd85XU/thodarwohd.part18.rar
http://www.uploadable.ch/file/wkcDmD4jh7wK/thodarwohd.part19.rar
http://www.uploadable.ch/file/XR2R4wnX8s6c/thodarwohd.part20.rar
http://www.uploadable.ch/file/TSzEtwfHtDBM/thodarwohd.part21.rar
http://www.uploadable.ch/file/MUuQSEKBtbpn/thodarwohd.part22.rar
http://www.uploadable.ch/file/9UFRXBSWUGG9/thodarwohd.part23.rar
http://www.uploadable.ch/file/zGxWMZ7pAJd7/thodarwohd.part24.rar
http://www.uploadable.ch/file/TnjGBAYWXaxa/thodarwohd.part25.rar
http://www.uploadable.ch/file/XdY74FqnnNCu/thodarwohd.part26.rar
http://www.uploadable.ch/file/Qvp3QTEMsHjQ/thodarwohd.part27.rar


Direct Download

Tags: FullHD

Thor The Dark World (2013)(FullHD 1080) Download via Hotfile Rapidshare Fileserve Megaupload & FileSonic, Thor The Dark World (2013)(FullHD 1080) free torrent downloads included crack, serial, keygen.Thor The Dark World (2013)(FullHD 1080) Fast Download via Rapidshare Hotfile Fileserve Filesonic Megaupload, Thor The Dark World (2013)(FullHD 1080) Torrents and Emule Download or anything related.
Leave a Comment
Your Name:
E-Mail:
Add Comments:

Enter Code: