Undisputed (2002)(FullHD 1080)

Download Now


Undisputed (2002)(FullHD 1080)
http://www.imdb.com/title/tt0281322/

Original title Undisputed
year 2002
Duration 95 min.
Country United States
Director Walter Hill
Guion Walter Hill & David Giler
Music Stanley Clarke
Photographs Lloyd Ahern II
Starring Wesley Snipes, Ving Rhames, Peter Falk, Wes Studi, Michael Rooker, Jon Seda, Fisher Stevens, Johnny Williams, Master P., Ed Lover
Miramax Production
Gender Action. Drama | Sport. boxing
Synopsis The world champion in boxing heavyweight category George "Iceman" Chambers is sent to jail accused of rape, a charge that is declared totally innocent. What more is that you are outraged at the top of his career as a professional boxer not be able to enjoy and defend his title undefeated champion



Format : Matroska
Format version : Version 4 / Version 2
File size : 2.35 GiB
Duration : 1h 33mn
Overall bit rate : 3 588 Kbps
Movie name : La Gran Pelea (2002) [FULL 1080p Dual]
Encoded date : UTC 2013-11-19 16:52:19
Writing application : mkvmerge v6.0.0 ('Coming Up For Air') built on Jan 20 2013 09:52:00
Writing library : libebml v1.3.0 + libmatroska v1.4.0
Video
ID : 1
Format : AVC
Format/Info : Advanced Video Codec
Format profile : [email protected]
Format settings, CABAC : Yes
Format settings, ReFrames : 4 frames
Codec ID : V_MPEG4/ISO/AVC
Duration : 1h 33mn
Bit rate : 2 813 Kbps
Nominal bit rate : 3 000 Kbps
Width : 1 920 pixels
Height : 1 080 pixels
Display aspect ratio : 16:9
Frame rate mode : Constant
Frame rate : 23.976 fps
Color space : YUV
Chroma subsampling : 4:2:0
Bit depth : 8 bits
Scan type : Progressive
Bits/(Pixel*Frame) : 0.057
Stream size : 1.84 GiB (78%)
Title : WwW..org
Writing library : x264 core 130 r2273 b3065e6
Default : Yes
Forced : No
Color primaries : BT.709
Transfer characteristics : BT.709
Matrix coefficients : BT.709
Audio #1
ID : 2
Format : AC-3
Format/Info : Audio Coding 3
Mode extension : CM (complete main)
Format settings, Endianness : Big
Codec ID : A_AC3
Duration : 1h 33mn
Bit rate mode : Constant
Bit rate : 384 Kbps
Channel count : 6 channels
Channel positions : Front: L C R, Side: L R, LFE
Sampling rate : 44.1 KHz
Bit depth : 16 bits
Compression mode : Lossy
Delay relative to video : 2s 0ms
Stream size : 257 MiB (11%)
Title : Audio Latino
Default : Yes
Forced : No
Audio #2
ID : 3
Format : AC-3
Format/Info : Audio Coding 3
Mode extension : CM (complete main)
Format settings, Endianness : Big
Codec ID : A_AC3
Duration : 1h 33mn
Bit rate mode : Constant
Bit rate : 320 Kbps
Channel count : 6 channels
Channel positions : Front: L C R, Side: L R, LFE
Sampling rate : 44.1 KHz
Bit depth : 16 bits
Compression mode : Lossy
Stream size : 214 MiB (9%)
Title : Audio Ingles
Default : No
Forced : No
Text #1
ID : 4
Format : UTF-8
Codec ID : S_TEXT/UTF8
Codec ID/Info : UTF-8 Plain Text
Title : Subtitulos Latino
Default : No
Forced : No
Text #2
ID : 5
Format : UTF-8
Codec ID : S_TEXT/UTF8
Codec ID/Info : UTF-8 Plain Text
Title : Subtitulos Ingles
Default : No
Forced : No
Text #3
ID : 6
Format : UTF-8
Codec ID : S_TEXT/UTF8
Codec ID/Info : UTF-8 Plain Text
Default : Yes
Forced : No


Undisputed (2002)(FullHD 1080)
Undisputed (2002)(FullHD 1080)

Undisputed (2002)(FullHD 1080)

Undisputed (2002)(FullHD 1080)
http://www.uploadable.ch/file/2JZFfnSNfaZX/undisp1hd.part01.rar
http://www.uploadable.ch/file/eSMNwXwsx7at/undisp1hd.part02.rar
http://www.uploadable.ch/file/WKBwnxtVMBAZ/undisp1hd.part03.rar
http://www.uploadable.ch/file/53CXwcRpKuyD/undisp1hd.part04.rar
http://www.uploadable.ch/file/XWHYdHPGc34J/undisp1hd.part05.rar
http://www.uploadable.ch/file/fg6dRWR92Tuv/undisp1hd.part06.rar
http://www.uploadable.ch/file/SDuZvKKjK8yf/undisp1hd.part07.rar
http://www.uploadable.ch/file/S4AVUNzVFfXE/undisp1hd.part08.rar
http://www.uploadable.ch/file/Wgu3MJn7EHJv/undisp1hd.part09.rar
http://www.uploadable.ch/file/TtvTExYWgNbE/undisp1hd.part10.rar


Direct Download

Tags: Undisputed, FullHD

Undisputed (2002)(FullHD 1080) Download via Hotfile Rapidshare Fileserve Megaupload & FileSonic, Undisputed (2002)(FullHD 1080) free torrent downloads included crack, serial, keygen.Undisputed (2002)(FullHD 1080) Fast Download via Rapidshare Hotfile Fileserve Filesonic Megaupload, Undisputed (2002)(FullHD 1080) Torrents and Emule Download or anything related.
Leave a Comment
Your Name:
E-Mail:
Add Comments:

Enter Code: