Werewolf The Beast Among Us (2012)(FullHD 1080)

Download Now


Werewolf The Beast Among Us (2012)(FullHD 1080)
http://www.imdb.com/title/tt1987028/

Original title Werewolf: The Beast Among Us
Year 2012
Duration 93 min.
Country United States
Director Louis Morneau
Guion Michael Tabb, Catherine Cyran
Musica Michael Wandmacher
Philip Robertson Photography
Starring Ed Quinn, Stephen Rea, Steven Bauer, Guy Wilson, Nia Peeples, Zoltan Butuc, Rachel DiPillo, Ana Ularu, Adam Croasdell, Razvan Gheorghiu, Iulia Carstea
Universal Entertainment Production 1440
Gender Fantastico | Werewolves. XIX Century
Synopsis Europe, nineteenth century. In the full moon, a monstrous terrorizes villagers. While studying with a local doctor, Daniel witnesses the horrors resulting from the attacks of a werewolf. The fearsome reputation of the beast to the village attracts bounty hunters, thrill seekers and charlatans. When a mysterious stranger and his team of werewolf hunters come to the village, decides to join them despite the protests of his mother. But order soon discover that the monster is stronger and more dangerous than he had imagined.



Format : Matroska
Format version : Version 4 / Version 2
File size : 2.40 GiB
Duration : 1h 33mn
Overall bit rate : 3 680 Kbps
Movie name : Werewolf The Beast Among Us (2012) [FULL 1080p Dual]
Encoded date : UTC 2013-12-03 03:48:45
Writing application : mkvmerge v6.0.0 ('Coming Up For Air') built on Jan 20 2013 09:52:00
Writing library : libebml v1.3.0 + libmatroska v1.4.0
Video
ID : 1
Format : AVC
Format/Info : Advanced Video Codec
Format profile : [email protected]
Format settings, CABAC : Yes
Format settings, ReFrames : 2 frames
Codec ID : V_MPEG4/ISO/AVC
Duration : 1h 33mn
Bit rate : 2 711 Kbps
Width : 1 920 pixels
Height : 1 080 pixels
Display aspect ratio : 16:9
Frame rate mode : Constant
Frame rate : 23.976 fps
Color space : YUV
Chroma subsampling : 4:2:0
Bit depth : 8 bits
Scan type : Progressive
Bits/(Pixel*Frame) : 0.055
Stream size : 1.77 GiB (74%)
Writing library : x264 core
Default : Yes
Forced : No
Color primaries : BT.709
Transfer characteristics : BT.709
Matrix coefficients : BT.709
Audio #1
ID : 2
Format : AC-3
Format/Info : Audio Coding 3
Mode extension : CM (complete main)
Format settings, Endianness : Big
Codec ID : A_AC3
Duration : 1h 33mn
Bit rate mode : Constant
Bit rate : 448 Kbps
Channel count : 6 channels
Channel positions : Front: L C R, Side: L R, LFE
Sampling rate : 48.0 KHz
Bit depth : 16 bits
Compression mode : Lossy
Stream size : 299 MiB (12%)
Title : Audio Latino
Default : Yes
Forced : No
Audio #2
ID : 3
Format : AC-3
Format/Info : Audio Coding 3
Mode extension : CM (complete main)
Format settings, Endianness : Big
Codec ID : A_AC3
Duration : 1h 33mn
Bit rate mode : Constant
Bit rate : 448 Kbps
Channel count : 6 channels
Channel positions : Front: L C R, Side: L R, LFE
Sampling rate : 48.0 KHz
Bit depth : 16 bits
Compression mode : Lossy
Stream size : 299 MiB (12%)
Title : Audio Ingles
Default : No
Forced : No
Text #1
ID : 4
Format : VobSub
Muxing mode : zlib
Codec ID : S_VOBSUB
Codec ID/Info : The same subtitle format used on DVDs
Title : Subtitulos Latino
Default : No
Forced : No
Text #2
ID : 5
Format : VobSub
Muxing mode : zlib
Codec ID : S_VOBSUB
Codec ID/Info : The same subtitle format used on DVDs
Title : Subtitulos Ingles
Default : No
Forced : No
Text #3
ID : 6
Format : UTF-8
Codec ID : S_TEXT/UTF8
Codec ID/Info : UTF-8 Plain Text
Default : Yes
Forced : No


Werewolf The Beast Among Us (2012)(FullHD 1080)
Werewolf The Beast Among Us (2012)(FullHD 1080)

Werewolf The Beast Among Us (2012)(FullHD 1080)

Werewolf The Beast Among Us (2012)(FullHD 1080)


http://www.uploadable.ch/file/uy4jKFeeb6VK/werewgdhd.part01.rar
http://www.uploadable.ch/file/cJTNuaYag8SY/werewgdhd.part02.rar
http://www.uploadable.ch/file/DGvB57ps8HMz/werewgdhd.part03.rar
http://www.uploadable.ch/file/4pYHsU4uS4E2/werewgdhd.part04.rar
http://www.uploadable.ch/file/uyxzwBQMnz38/werewgdhd.part05.rar
http://www.uploadable.ch/file/Peme8uDWSkuw/werewgdhd.part06.rar
http://www.uploadable.ch/file/wqPgMgNtSXmU/werewgdhd.part07.rar
http://www.uploadable.ch/file/9YJVtaWh3H6C/werewgdhd.part08.rar
http://www.uploadable.ch/file/tqcrUmN8TuAc/werewgdhd.part09.rar
http://www.uploadable.ch/file/YhQryBjARdRd/werewgdhd.part10.rar
Direct Download

Tags: Werewolf, FullHD

Werewolf The Beast Among Us (2012)(FullHD 1080) Download via Hotfile Rapidshare Fileserve Megaupload & FileSonic, Werewolf The Beast Among Us (2012)(FullHD 1080) free torrent downloads included crack, serial, keygen.Werewolf The Beast Among Us (2012)(FullHD 1080) Fast Download via Rapidshare Hotfile Fileserve Filesonic Megaupload, Werewolf The Beast Among Us (2012)(FullHD 1080) Torrents and Emule Download or anything related.
Leave a Comment
Your Name:
E-Mail:
Add Comments:

Enter Code: