X-Men 3 (2006)(Full HD 1080)

Download Now


X-Men 3 (2006)(Full HD 1080)

Original title X3 (X-Men 3: The Last Stand)
year 2006
Duration 105 min.
Country United States
Director Brett Ratner
Guion Zak Penn, Simon Kinberg
Musica John Powell
Photographs Dante Spinotti
Starring Hugh Jackman, Patrick Stewart, Ian McKellen, Halle Berry, Famke Janssen, Anna Paquin, Rebecca Romijn-Stamos, Kelsey Grammer, Vinnie Jones, James Marsden, Ellen Page, Daniel Cudmore, Shawn Ashmore, Ben Foster, Cameron Bright, Dania Ramirez Aaron Stanford, Anthony Heald, Stan Lee, Ken Leung, Olivia Williams
Studio 20th Century Fox
Science fiction genre. Fantastico. Action. Thriller | Superheroes. Comic. Marvel Comics. sequela
Synopsis Last chapter of the cinematic trilogy "X-Men". A fact threatens to alter the course of history. For the first time, mutants have a choice: retain their uniqueness, condemning the isolation, or give up their powers and become normal humans. The leaders of the mutants argue antagonistic points of view: while Charles Xavier preaches tolerance, Magneto defends the thesis of the survival of the fittest.



General
X-Men 3 (2006) [FULL 1080p Dual].mkv
Format : Matroska
Format version : Version 4 / Version 2
File size : 2.75 GiB
Duration : 1h 44mn
Overall bit rate : 3 784 Kbps
Movie name : X-Men: The Last Stand (2006) [FULL 1080p Dual]
Encoded date : UTC 2014-03-05 00:12:57
Writing application : mkvmerge v6.5.0 (Isnt she lovely) built on Oct 20 2013 12:50:05
Writing library : libebml v1.3.0 + libmatroska v1.4.1
Video
ID : 1
Format : AVC
Format/Info : Advanced Video Codec
Format profile : [email protected]
Format settings, CABAC : Yes
Format settings, ReFrames : 1 frame
Format settings, GOP : M=1, N=24
Codec ID : V_MPEG4/ISO/AVC
Bit rate : 2 940 Kbps
Width : 1 920 pixels
Height : 1 080 pixels
Display aspect ratio : 16:9
Frame rate mode : Variable
Original frame rate : 23.976 fps
Color space : YUV
Chroma subsampling : 4:2:0
Bit depth : 8 bits
Scan type : Progressive
Writing library : x264 core
Default : Yes
Forced : No
Color primaries : BT.709
Transfer characteristics : BT.709
Matrix coefficients : BT.709
Audio #1
ID : 2
Format : AC-3
Format/Info : Audio Coding 3
Mode extension : CM (complete main)
Format settings, Endianness : Big
Codec ID : A_AC3
Duration : 1h 44mn
Bit rate mode : Constant
Bit rate : 448 Kbps
Channel count : 6 channels
Channel positions : Front: L C R, Side: L R, LFE
Sampling rate : 48.0 KHz
Bit depth : 16 bits
Compression mode : Lossy
Stream size : 334 MiB (12%)
Language : Spanish
Default : Yes
Forced : No
Audio #2
ID : 3
Format : AC-3
Format/Info : Audio Coding 3
Mode extension : CM (complete main)
Format settings, Endianness : Big
Codec ID : A_AC3
Duration : 1h 44mn
Bit rate mode : Constant
Bit rate : 320 Kbps
Channel count : 6 channels
Channel positions : Front: L C R, Side: L R, LFE
Sampling rate : 44.1 KHz
Bit depth : 16 bits
Compression mode : Lossy
Stream size : 238 MiB (8%)
Language : English
Default : No
Forced : No
Text #1
ID : 4
Format : VobSub
Muxing mode : zlib
Codec ID : S_VOBSUB
Codec ID/Info : The same subtitle format used on DVDs
Language : Spanish
Default : No
Forced : No
Text #2
ID : 5
Format : VobSub
Muxing mode : zlib
Codec ID : S_VOBSUB
Codec ID/Info : The same subtitle format used on DVDs
Language : English
Default : No
Forced : No
Text #3
ID : 6
Format : UTF-8
Codec ID : S_TEXT/UTF8
Codec ID/Info : UTF-8 Plain Text
Default : Yes
Forced : No


X-Men 3 (2006)(Full HD 1080)
X-Men 3 (2006)(Full HD 1080)

X-Men 3 (2006)(Full HD 1080)


http://www.uploadable.ch/file/HFauyde4nT5K/xme03hd.part01.rar
http://www.uploadable.ch/file/VyeaZqHggqKY/xme03hd.part02.rar
http://www.uploadable.ch/file/h3ceV3EJ3HZR/xme03hd.part03.rar
http://www.uploadable.ch/file/Rk6E6bGYgsta/xme03hd.part04.rar
http://www.uploadable.ch/file/GVbwzywsynmm/xme03hd.part05.rar
http://www.uploadable.ch/file/mKVj7paG7zRm/xme03hd.part06.rar
http://www.uploadable.ch/file/CdNtVrhzAzQY/xme03hd.part07.rar
http://www.uploadable.ch/file/vx8q3crxCDPp/xme03hd.part08.rar
http://www.uploadable.ch/file/ETsYukwPWSeS/xme03hd.part09.rar
http://www.uploadable.ch/file/neNSaFqB7ht3/xme03hd.part10.rar
http://www.uploadable.ch/file/6fCRUmBTtaUX/xme03hd.part11.rar
http://www.uploadable.ch/file/P3Y6ZDBjhR3j/xme03hd.part12.rar
Direct Download

X-Men 3 (2006)(Full HD 1080) Download via Hotfile Rapidshare Fileserve Megaupload & FileSonic, X-Men 3 (2006)(Full HD 1080) free torrent downloads included crack, serial, keygen.X-Men 3 (2006)(Full HD 1080) Fast Download via Rapidshare Hotfile Fileserve Filesonic Megaupload, X-Men 3 (2006)(Full HD 1080) Torrents and Emule Download or anything related.
Leave a Comment
Your Name:
E-Mail:
Add Comments:

Enter Code: