X-Men Origins Wolverine (2009)(Full HD 1080)

Download Now


X-Men Origins Wolverine (2009)(Full HD 1080)

Original title X-Men Origins: Wolverine
year 2009
Duration 107 min.
Country United States
Director Gavin Hood
Guion David Benioff, Skip Woods (Characters: Stan Lee)
Music Harry Gregson-Williams
Photography Donald McAlpine
Starring Hugh Jackman, Liev Schreiber, Danny Huston, Christian Clark, Lynn Collins, Daniel Henney, Kevin Durand, Will i Am, Ryan Reynolds, Dominic Monaghan, Taylor Kitsch, Michael-James Olsen, Tim Pocock, Julia Blake, Max Cullen, Troye Sivan, Peter O'Brien, Aaron Jeffery, Alice Parkinson, Chris Sadrinna, Matthew Dale, David Ritchie, Asher Keddie, Stephen Leeder, James D. Dever, Tahyna Tozzi, Scott Adkins
Studio Coproduction USA-Australia-New Zealand; 20th Century-Fox / Donners Company / Dune Entertainment / Marvel Enterprises / Seed Productions
Gender Fantastico. Action. Science fiction. Thriller | Superheroes. Comic. Marvel Comics. Prequel. Spin-off
Synopsis Prequel to the movie X-Men. Set 17 years before, narrates the beginning of Weapon X and how Wolverine became mutant. Logan (Hugh Jackman), turned into a mutant who calls himself Wolverine, and is capable of taking sharp claws and superhuman strength and agility, last revenge against Victor Creed (Liev Schreiber), guilty of the death of his girlfriend. Meanwhile, other mutants are welcome to X program to join forces.



General
X-Men 4 (2009) [FULL 1080p Dual].mkv
Format : Matroska
Format version : Version 4 / Version 2
File size : 2.77 GiB
Duration : 1h 47mn
Overall bit rate : 3 700 Kbps
Movie name : X-Men Origins: Wolverine (2009) [FULL1080p Dual]
Encoded date : UTC 2014-03-06 19:51:14
Writing application : mkvmerge v6.5.0 (Isnt she lovely) built on Oct 20 2013 12:50:05
Writing library : libebml v1.3.0 + libmatroska v1.4.1
Video
ID : 1
Format : AVC
Format/Info : Advanced Video Codec
Format profile : [email protected]
Format settings, CABAC : Yes
Format settings, ReFrames : 1 frame
Format settings, GOP : N=1
Codec ID : V_MPEG4/ISO/AVC
Bit rate : 2 922 Kbps
Width : 1 920 pixels
Height : 1 080 pixels
Display aspect ratio : 16:9
Frame rate mode : Variable
Original frame rate : 23.976 fps
Color space : YUV
Chroma subsampling : 4:2:0
Bit depth : 8 bits
Scan type : Progressive
Writing library : x264 core
Default : Yes
Forced : No
Color primaries : BT.709
Transfer characteristics : BT.709
Matrix coefficients : BT.709
Audio #1
ID : 2
Format : AC-3
Format/Info : Audio Coding 3
Mode extension : CM (complete main)
Format settings, Endianness : Big
Codec ID : A_AC3
Duration : 1h 47mn
Bit rate mode : Constant
Bit rate : 384 Kbps
Channel count : 6 channels
Channel positions : Front: L C R, Side: L R, LFE
Sampling rate : 48.0 KHz
Bit depth : 16 bits
Compression mode : Lossy
Delay relative to video : 1s 0ms
Stream size : 295 MiB (10%)
Language : Spanish
Default : Yes
Forced : No
Audio #2
ID : 3
Format : AC-3
Format/Info : Audio Coding 3
Mode extension : CM (complete main)
Format settings, Endianness : Big
Codec ID : A_AC3
Duration : 1h 47mn
Bit rate mode : Constant
Bit rate : 320 Kbps
Channel count : 6 channels
Channel positions : Front: L C R, Side: L R, LFE
Sampling rate : 44.1 KHz
Bit depth : 16 bits
Compression mode : Lossy
Stream size : 246 MiB (9%)
Language : English
Default : No
Forced : No
Text #1
ID : 4
Format : VobSub
Muxing mode : zlib
Codec ID : S_VOBSUB
Codec ID/Info : The same subtitle format used on DVDs
Language : Spanish
Default : No
Forced : No
Text #2
ID : 5
Format : VobSub
Muxing mode : zlib
Codec ID : S_VOBSUB
Codec ID/Info : The same subtitle format used on DVDs
Language : English
Default : No
Forced : No
Text #3
ID : 6
Format : UTF-8
Codec ID : S_TEXT/UTF8
Codec ID/Info : UTF-8 Plain Text
Default : Yes
Forced : No


X-Men Origins Wolverine (2009)(Full HD 1080)
X-Men Origins Wolverine (2009)(Full HD 1080)

X-Men Origins Wolverine (2009)(Full HD 1080)


http://www.uploadable.ch/file/QsBYCUpmpzaU/xmetwolvhd.part01.rar
http://www.uploadable.ch/file/gNjtTE7QBzSb/xmetwolvhd.part02.rar
http://www.uploadable.ch/file/J7SHDMTGktMY/xmetwolvhd.part03.rar
http://www.uploadable.ch/file/M4xTTwfcF9Ax/xmetwolvhd.part04.rar
http://www.uploadable.ch/file/8JjNPesJdhFA/xmetwolvhd.part05.rar
http://www.uploadable.ch/file/vuMQPS3Yqtga/xmetwolvhd.part06.rar
http://www.uploadable.ch/file/z4rKDR2k7Eb8/xmetwolvhd.part07.rar
http://www.uploadable.ch/file/GyU5ZBGUZesf/xmetwolvhd.part08.rar
http://www.uploadable.ch/file/ueuRk2TVW4yC/xmetwolvhd.part09.rar
http://www.uploadable.ch/file/5zpDDUDYqKBH/xmetwolvhd.part10.rar
http://www.uploadable.ch/file/fCaWxZq7tmcw/xmetwolvhd.part11.rar
http://www.uploadable.ch/file/KJJpjN4UJ4Ju/xmetwolvhd.part12.rar
Direct Download

Tags: Origins, Wolverine

X-Men Origins Wolverine (2009)(Full HD 1080) Download via Hotfile Rapidshare Fileserve Megaupload & FileSonic, X-Men Origins Wolverine (2009)(Full HD 1080) free torrent downloads included crack, serial, keygen.X-Men Origins Wolverine (2009)(Full HD 1080) Fast Download via Rapidshare Hotfile Fileserve Filesonic Megaupload, X-Men Origins Wolverine (2009)(Full HD 1080) Torrents and Emule Download or anything related.
Leave a Comment
Your Name:
E-Mail:
Add Comments:

Enter Code: