xXx2 (2005)(FullHD 1080)

Download Now


xXx2 (2005)(FullHD 1080)
http://www.imdb.com/title/tt0329774

Xxx2 Original title : State of the Union (AKA XXX : State of the Union)
year 2005
Length 101 min .
Country United States
Director Lee Tamahori
Guion Simon Kinberg (Characters: Rich Wilkes )
Music Marco Beltrami
Photography David Tattersall
Starring Ice Cube, Samuel L. Jackson, Willem Dafoe, Scott Speedman , Peter Strauss, Michael Roof , Zuni Mabrey , Xzibit , Nona Gaye
Columbia Pictures / Original Film / Revolution Studios
Genre Action | Sequel
Synopsis Augustus Gibbons (Jackson ) is a member of the U.S. National Security Agency . After escaping from a deadly attack staged by unknown murderers Gibbons suspects that have been sent by a secret and radical faction that acts from within the White House. Then looking for a military expert and well trained to help you uncover the radical group that hides behind the government. Unfortunately , Darius Stone (Ice Cube) , the perfect man for the job , is in prison. However, Gibbons helps you escape and convinces him to collaborate with as Agent XXX.



Format : Matroska
Format version : Version 4 / Version 2
File size : 2.15 GiB
Duration : 1h 40mn
Overall bit rate : 3 042 Kbps
Movie name : xXx 2 (2005) [1080p Dual]
Encoded date : UTC 2013-10-21 15:37:27
Writing application : mkvmerge v6.0.0 ('Coming Up For Air') built on Jan 20 2013 09:52:00
Writing library : libebml v1.3.0 + libmatroska v1.4.0
Video
ID : 1
Format : AVC
Format/Info : Advanced Video Codec
Format profile : [email protected]
Format settings, CABAC : Yes
Format settings, ReFrames : 4 frames
Codec ID : V_MPEG4/ISO/AVC
Duration : 1h 40mn
Bit rate : 2 500 Kbps
Width : 1 920 pixels
Height : 1 080 pixels
Display aspect ratio : 16:9
Frame rate mode : Constant
Frame rate : 23.976 fps
Color space : YUV
Chroma subsampling : 4:2:0
Bit depth : 8 bits
Scan type : Progressive
Bits/(Pixel*Frame) : 0.050
Stream size : 1.72 GiB (80%)
Writing library : x264 core 130 r2273 b3065e6
Default : Yes
Forced : No
Color primaries : BT.709
Transfer characteristics : BT.709
Matrix coefficients : BT.709
Audio #1
ID : 2
Format : AC-3
Format/Info : Audio Coding 3
Mode extension : CM (complete main)
Format settings, Endianness : Big
Codec ID : A_AC3
Duration : 1h 40mn
Bit rate mode : Constant
Bit rate : 224 Kbps
Channel count : 6 channels
Channel positions : Front: L C R, Side: L R, LFE
Sampling rate : 48.0 KHz
Bit depth : 16 bits
Compression mode : Lossy
Stream size : 162 MiB (7%)
Title : Espanol Latino
Default : Yes
Forced : No
Audio #2
ID : 3
Format : AC-3
Format/Info : Audio Coding 3
Mode extension : CM (complete main)
Format settings, Endianness : Big
Codec ID : A_AC3
Duration : 1h 40mn
Bit rate mode : Constant
Bit rate : 320 Kbps
Channel count : 6 channels
Channel positions : Front: L C R, Side: L R, LFE
Sampling rate : 44.1 KHz
Bit depth : 16 bits
Compression mode : Lossy
Stream size : 231 MiB (11%)
Title : Ingles
Default : No
Forced : No
Text #1
ID : 4
Format : PGS
Muxing mode : zlib
Codec ID : S_HDMV/PGS
Codec ID/Info : The same subtitle format used on BDs/HD-DVDs
Title : Subtitulos Espanol
Default : No
Forced : No
Text #2
ID : 5
Format : UTF-8
Codec ID : S_TEXT/UTF8
Codec ID/Info : UTF-8 Plain Text
Default : Yes
Forced : No


xXx2 (2005)(FullHD 1080)
xXx2 (2005)(FullHD 1080)

xXx2 (2005)(FullHD 1080)

xXx2 (2005)(FullHD 1080)
http://www.uploadable.ch/file/v7qhEp6aHxw8/xmox2hd.part01.rar
http://www.uploadable.ch/file/WDpnHCecp2Yc/xmox2hd.part02.rar
http://www.uploadable.ch/file/nPPYVXVsmXqD/xmox2hd.part03.rar
http://www.uploadable.ch/file/heRbBtz6xTsV/xmox2hd.part04.rar
http://www.uploadable.ch/file/XJwfUW8suxEG/xmox2hd.part05.rar
http://www.uploadable.ch/file/fvry9u8ckCVX/xmox2hd.part06.rar
http://www.uploadable.ch/file/avaFRxFDE6Sr/xmox2hd.part07.rar
http://www.uploadable.ch/file/x6SGDjPZErAE/xmox2hd.part08.rar
http://www.uploadable.ch/file/MMTwEkyWxKRV/xmox2hd.part09.rar


Direct Download

Tags: FullHD

xXx2 (2005)(FullHD 1080) Download via Hotfile Rapidshare Fileserve Megaupload & FileSonic, xXx2 (2005)(FullHD 1080) free torrent downloads included crack, serial, keygen.xXx2 (2005)(FullHD 1080) Fast Download via Rapidshare Hotfile Fileserve Filesonic Megaupload, xXx2 (2005)(FullHD 1080) Torrents and Emule Download or anything related.
Leave a Comment
Your Name:
E-Mail:
Add Comments:

Enter Code: