Freddys Dead The Final Nightmare (1991)(FullHD 1080)

Download Now


Freddys Dead The Final Nightmare (1991)(FullHD 1080)
http://www.imdb.com/title/tt0101917/

Original title Freddy's Dead: The Final Nightmare (A Nightmare on Elm Street 6)
year 1991
Duration 90 min.
Country United States
Director Rachel Talalay
Guion Michael De Luca (Story: Rachel Talalay Characters. Wes Craven)
Music Brian May
Declan Quinn Photography
Starring Robert Englund, Lisa Zane, Yaphet Kotto, Shon Greenblatt, Leslie Deane, Ricky Dean Logan, Breckin Meyer, Roseanne Barr, Tom Arnold, Johnny Depp
New Line Cinema
Genre Horror | Slasher. sequela
Synopsis After ten years, Freddy Krueger returns to sow panic among teens of Springwood. Uses for its revenge a young amnesiac who serve to revitalize their powers and find her own daughter.



Format : Matroska
Format version : Version 4 / Version 2
File size : 2.41 GiB
Duration : 1h 29mn
Overall bit rate : 3 870 Kbps
Movie name : Freddy's Dead: The Final Nightmare (1991) FULL 1080p
Encoded date : UTC 2014-04-28 23:19:07
Writing application : mkvmerge v6.5.0 ('Isn't she lovely') built on Oct 20 2013 12:50:05
Writing library : libebml v1.3.0 + libmatroska v1.4.1
Video
ID : 1
Format : AVC
Format/Info : Advanced Video Codec
Format profile : [email protected]
Format settings, CABAC : Yes
Format settings, ReFrames : 2 frames
Codec ID : V_MPEG4/ISO/AVC
Duration : 1h 29mn
Bit rate : 2 897 Kbps
Width : 1 920 pixels
Height : 1 080 pixels
Display aspect ratio : 16:9
Frame rate mode : Constant
Frame rate : 23.976 fps
Color space : YUV
Chroma subsampling : 4:2:0
Bit depth : 8 bits
Scan type : Progressive
Bits/(Pixel*Frame) : 0.058
Stream size : 1.81 GiB (75%)
Title : WwW.CinemaniaHD.org
Writing library : x264 core
Default : Yes
Forced : No
Color primaries : BT.709
Transfer characteristics : BT.709
Matrix coefficients : BT.709
Audio #1
ID : 2
Format : AC-3
Format/Info : Audio Coding 3
Mode extension : CM (complete main)
Format settings, Endianness : Big
Codec ID : A_AC3
Duration : 1h 29mn
Bit rate mode : Constant
Bit rate : 448 Kbps
Channel count : 6 channels
Channel positions : Front: L C R, Side: L R, LFE
Sampling rate : 48.0 KHz
Bit depth : 16 bits
Compression mode : Lossy
Stream size : 286 MiB (12%)
Title : Audio Latino
Language : Spanish
Default : Yes
Forced : No
Audio #2
ID : 3
Format : AC-3
Format/Info : Audio Coding 3
Mode extension : CM (complete main)
Format settings, Endianness : Big
Codec ID : A_AC3
Duration : 1h 29mn
Bit rate mode : Constant
Bit rate : 448 Kbps
Channel count : 6 channels
Channel positions : Front: L C R, Side: L R, LFE
Sampling rate : 48.0 KHz
Bit depth : 16 bits
Compression mode : Lossy
Stream size : 286 MiB (12%)
Title : Audio Ingles
Language : English
Default : No
Forced : No
Text #1
ID : 4
Format : UTF-8
Codec ID : S_TEXT/UTF8
Codec ID/Info : UTF-8 Plain Text
Default : Yes
Forced : No
Text #2
ID : 5
Format : VobSub
Muxing mode : zlib
Codec ID : S_VOBSUB
Codec ID/Info : The same subtitle format used on DVDs
Title : Subtitulos Latino
Language : Spanish
Default : No
Forced : No
Text #3
ID : 6
Format : VobSub
Muxing mode : zlib
Codec ID : S_VOBSUB
Codec ID/Info : The same subtitle format used on DVDs
Title : Subtitulos Ingles
Language : English
Default : No
Forced : No


Freddys Dead The Final Nightmare (1991)(FullHD 1080)
Freddys Dead The Final Nightmare (1991)(FullHD 1080)

Freddys Dead The Final Nightmare (1991)(FullHD 1080)


http://www.uploadable.ch/file/YfgWnQCN5QZE/anigmfrd6.part01.rar
http://www.uploadable.ch/file/W9AnK6PWWmeK/anigmfrd6.part02.rar
http://www.uploadable.ch/file/KE7wVDGymNYj/anigmfrd6.part03.rar
http://www.uploadable.ch/file/Mjqy96X4ycCH/anigmfrd6.part04.rar
http://www.uploadable.ch/file/mmVmsr7vMrze/anigmfrd6.part05.rar
http://www.uploadable.ch/file/uV9dUHghE47q/anigmfrd6.part06.rar
http://www.uploadable.ch/file/nKS3xND8c4Qx/anigmfrd6.part07.rar
http://www.uploadable.ch/file/jbP3wGn6DgUD/anigmfrd6.part08.rar
http://www.uploadable.ch/file/KyjNvNsSTepq/anigmfrd6.part09.rar
http://www.uploadable.ch/file/sxR8QJecXyqv/anigmfrd6.part10.rar
Direct Download

Tags: Freddys, Nightmare, FullHD

Freddys Dead The Final Nightmare (1991)(FullHD 1080) Download via Hotfile Rapidshare Fileserve Megaupload & FileSonic, Freddys Dead The Final Nightmare (1991)(FullHD 1080) free torrent downloads included crack, serial, keygen.Freddys Dead The Final Nightmare (1991)(FullHD 1080) Fast Download via Rapidshare Hotfile Fileserve Filesonic Megaupload, Freddys Dead The Final Nightmare (1991)(FullHD 1080) Torrents and Emule Download or anything related.
Leave a Comment
Your Name:
E-Mail:
Add Comments:

Enter Code: