Fruitvale Station (2013)(FullHD 1080)

Download Now


Fruitvale Station (2013)(FullHD 1080)
http://www.imdb.com/title/tt2334649/

Original title Fruitvale Station
year 2013
Duration 90 min.
Country United States
Director Ryan Coogler
Guion Ryan Coogler
Music Ludwig Goransson
Rachel Morrison Photography
Starring Michael B. Jordan, Octavia Spencer, Melonie Diaz, Ahna O'Reilly, Kevin Durand, Chad Michael Murray, Ariana Neal, Keenan Coogler, Joey Oglesby, Trestin George, Michael James, Marjorie Shears, Destiny Ekwueme, Bianca Rodriguez III
Production Forest Whitaker's Significant Productions / OG Project / The Weinstein Company
Genre Drama | Based on a true story. Indie USA
Synopsis It tells the true story of Oscar Grant (Michael B. Jordan). A young African American 22 year old who gets involved in a fight during the New Year's Eve of the year 2008, was arrested by several police officers. The dispute between the young and the brigade brings irreparable consequences. Several people recorded the event with their mobile phones



Format : Matroska
Format version : Version 2
File size : 2.21 GiB
Duration : 1h 25mn
Overall bit rate : 3 721 Kbps
Movie name : Fruitvale Station (2013) [FULL 1080p Dual]
Encoded date : UTC 2013-12-22 17:28:29
Writing application : mkvmerge v5.7.0 ('The Whirlwind') built on Jul 8 2012 20:08:51
Writing library : libebml v1.2.3 + libmatroska v1.3.0
Video
ID : 1
Format : AVC
Format/Info : Advanced Video Codec
Format profile : [email protected]
Format settings, CABAC : Yes
Format settings, ReFrames : 4 frames
Muxing mode : Header stripping
Codec ID : V_MPEG4/ISO/AVC
Duration : 1h 25mn
Bit rate : 3 000 Kbps
Width : 1 920 pixels
Height : 1 080 pixels
Display aspect ratio : 16:9
Frame rate mode : Constant
Frame rate : 23.976 fps
Color space : YUV
Chroma subsampling : 4:2:0
Bit depth : 8 bits
Scan type : Progressive
Bits/(Pixel*Frame) : 0.060
Stream size : 1.71 GiB (77%)
Writing library : x264 core 130 r2273 b3065e6
Default : Yes
Forced : No
Color primaries : BT.709
Transfer characteristics : BT.709
Matrix coefficients : BT.709
Audio #1
ID : 2
Format : AC-3
Format/Info : Audio Coding 3
Mode extension : CM (complete main)
Format settings, Endianness : Big
Muxing mode : Header stripping
Codec ID : A_AC3
Duration : 1h 25mn
Bit rate mode : Constant
Bit rate : 448 Kbps
Channel count : 6 channels
Channel positions : Front: L C R, Side: L R, LFE
Sampling rate : 48.0 KHz
Bit depth : 16 bits
Compression mode : Lossy
Stream size : 272 MiB (12%)
Title : Audio Latino
Default : Yes
Forced : No
Audio #2
ID : 3
Format : AC-3
Format/Info : Audio Coding 3
Mode extension : CM (complete main)
Format settings, Endianness : Big
Muxing mode : Header stripping
Codec ID : A_AC3
Duration : 1h 25mn
Bit rate mode : Constant
Bit rate : 320 Kbps
Channel count : 6 channels
Channel positions : Front: L C R, Side: L R, LFE
Sampling rate : 44.1 KHz
Bit depth : 16 bits
Compression mode : Lossy
Stream size : 195 MiB (9%)
Title : Audio Ingles
Default : No
Forced : No
Text #1
ID : 4
Format : UTF-8
Codec ID : S_TEXT/UTF8
Codec ID/Info : UTF-8 Plain Text
Title : Subtitulos Latino
Default : No
Forced : No
Text #2
ID : 5
Format : UTF-8
Codec ID : S_TEXT/UTF8
Codec ID/Info : UTF-8 Plain Text
Title : Subtitulos Ingles
Default : No
Forced : No
Text #3
ID : 6
Format : UTF-8
Codec ID : S_TEXT/UTF8
Codec ID/Info : UTF-8 Plain Text
Default : Yes
Forced : No


Fruitvale Station (2013)(FullHD 1080)
Fruitvale Station (2013)(FullHD 1080)

Fruitvale Station (2013)(FullHD 1080)



Fruitvale Station (2013)(FullHD 1080)
http://www.uploadable.ch/file/vVS78aSe6tq5/friutstahd.part01.rar
http://www.uploadable.ch/file/QhkRczMEsWrh/friutstahd.part02.rar
http://www.uploadable.ch/file/eZpnPJqnMBnr/friutstahd.part03.rar
http://www.uploadable.ch/file/2cySdxm8k5GB/friutstahd.part04.rar
http://www.uploadable.ch/file/SHXzp8sT5Sd3/friutstahd.part05.rar
http://www.uploadable.ch/file/dtF8egnKrRvS/friutstahd.part06.rar
http://www.uploadable.ch/file/wNc4Ft2VJGQF/friutstahd.part07.rar
http://www.uploadable.ch/file/dwwQEAngxzuR/friutstahd.part08.rar
http://www.uploadable.ch/file/H66DxUD7NvcH/friutstahd.part09.rar
http://www.uploadable.ch/file/mEQsHJ3chAvh/friutstahd.part10.rar
Direct Download

Tags: Fruitvale, Station, FullHD

Fruitvale Station (2013)(FullHD 1080) Download via Hotfile Rapidshare Fileserve Megaupload & FileSonic, Fruitvale Station (2013)(FullHD 1080) free torrent downloads included crack, serial, keygen.Fruitvale Station (2013)(FullHD 1080) Fast Download via Rapidshare Hotfile Fileserve Filesonic Megaupload, Fruitvale Station (2013)(FullHD 1080) Torrents and Emule Download or anything related.
Leave a Comment
Your Name:
E-Mail:
Add Comments:

Enter Code: