Ghost Team One (2013)(Full 1080)

Download Now


Ghost Team One (2013)(Full 1080)
http://www.imdb.com/title/tt2272336/

Original title Ghost Team One
year 2013
Duration 107 min.
Country United States
Director Ben Peyser, Scott Rutherford
Guion Andrew Knauer, Arthur Pielli
Music Mike Plas
Photography Ben Peyser
Cast Carlos Santos, J. R. Villarreal, Tony Cavalero, Meghan Falcone, James Babson, Craig Stott, Scott MacArthur, Fernanda Romero
Hernany Perla Studio Films / Flying Monkeys Entertainment
Genre Comedy. Horror | Comedy horror. Supernatural. ghosts
Synopsis Two roommates love with the same woman are one who believes her house is haunted.



General
Ghost Team One (2013) [FULL 1080p Dual].mkv
Format : Matroska
Format version : Version 4 / Version 2
File size : 2.28 GiB
Duration : 1h 24mn
Overall bit rate : 3 866 Kbps
Movie name : Ghost Team One (2013) [FULL 1080p Dual]
Encoded date : UTC 2014-01-01 22:54:36
Writing application : mkvmerge v6.0.0 ('Coming Up For Air') built on Jan 20 2013 09:52:00
Writing library : libebml v1.3.0 + libmatroska v1.4.0
Video
ID : 1
Format : AVC
Format/Info : Advanced Video Codec
Format profile : [email protected]
Format settings, CABAC : Yes
Format settings, ReFrames : 2 frames
Codec ID : V_MPEG4/ISO/AVC
Duration : 1h 24mn
Bit rate : 2 893 Kbps
Width : 1 920 pixels
Height : 1 080 pixels
Display aspect ratio : 16:9
Frame rate mode : Constant
Frame rate : 23.976 fps
Color space : YUV
Chroma subsampling : 4:2:0
Bit depth : 8 bits
Scan type : Progressive
Bits/(Pixel*Frame) : 0.058
Stream size : 1.70 GiB (75%)
Writing library : x264 core
Default : Yes
Forced : No
Color primaries : BT.709
Transfer characteristics : BT.709
Matrix coefficients : BT.709
Audio #1
ID : 2
Format : AC-3
Format/Info : Audio Coding 3
Mode extension : CM (complete main)
Format settings, Endianness : Big
Codec ID : A_AC3
Duration : 1h 24mn
Bit rate mode : Constant
Bit rate : 448 Kbps
Channel count : 6 channels
Channel positions : Front: L C R, Side: L R, LFE
Sampling rate : 48.0 KHz
Bit depth : 16 bits
Compression mode : Lossy
Stream size : 270 MiB (12%)
Title : Audio Latino
Default : Yes
Forced : No
Audio #2
ID : 3
Format : AC-3
Format/Info : Audio Coding 3
Mode extension : CM (complete main)
Format settings, Endianness : Big
Codec ID : A_AC3
Duration : 1h 24mn
Bit rate mode : Constant
Bit rate : 448 Kbps
Channel count : 6 channels
Channel positions : Front: L C R, Side: L R, LFE
Sampling rate : 48.0 KHz
Bit depth : 16 bits
Compression mode : Lossy
Stream size : 270 MiB (12%)
Title : Audio Ingles
Default : No
Forced : No
Text #1
ID : 4
Format : VobSub
Muxing mode : zlib
Codec ID : S_VOBSUB
Codec ID/Info : The same subtitle format used on DVDs
Title : Subtitulos Latino
Default : No
Forced : No
Text #2
ID : 5
Format : VobSub
Muxing mode : zlib
Codec ID : S_VOBSUB
Codec ID/Info : The same subtitle format used on DVDs
Title : Subtitulos Ingles
Default : No
Forced : No
Text #3
ID : 6
Format : UTF-8
Codec ID : S_TEXT/UTF8
Codec ID/Info : UTF-8 Plain Text
Default : Yes
Forced : No


Ghost Team One (2013)(Full 1080)
Ghost Team One (2013)(Full 1080)

Ghost Team One (2013)(Full 1080)


http://www.uploadable.ch/file/nUtWprS7pPsX/ghteamhd.part01.rar
http://www.uploadable.ch/file/qcCk2gN8Amt6/ghteamhd.part02.rar
http://www.uploadable.ch/file/WbXMC3Z6YkYM/ghteamhd.part03.rar
http://www.uploadable.ch/file/dc7ddyR4pQq5/ghteamhd.part04.rar
http://www.uploadable.ch/file/XwtBVWepfwkm/ghteamhd.part05.rar
http://www.uploadable.ch/file/Gjw7Z5t53g8N/ghteamhd.part06.rar
http://www.uploadable.ch/file/xpfV9xYdZq9M/ghteamhd.part07.rar
http://www.uploadable.ch/file/RWCtrX5Q7rcB/ghteamhd.part08.rar
http://www.uploadable.ch/file/zzzbHBPhKXyG/ghteamhd.part09.rar
http://www.uploadable.ch/file/WmsBuWH3E8bz/ghteamhd.part10.rar
Direct Download

Ghost Team One (2013)(Full 1080) Download via Hotfile Rapidshare Fileserve Megaupload & FileSonic, Ghost Team One (2013)(Full 1080) free torrent downloads included crack, serial, keygen.Ghost Team One (2013)(Full 1080) Fast Download via Rapidshare Hotfile Fileserve Filesonic Megaupload, Ghost Team One (2013)(Full 1080) Torrents and Emule Download or anything related.
Leave a Comment
Your Name:
E-Mail:
Add Comments:

Enter Code: