George Thorogood & The Destroyers - Greatest Hits: 30 Years Of Rock (2004)

Download Now

George Thorogood & The Destroyers - Greatest Hits: 30 Years Of Rock (2004)

George Thorogood & The Destroyers - Greatest Hits: 30 Years Of Rock (2004)
EAC Rip | FLAC (Img) + Cue + Log ~ 605 Mb | MP3 CBR320 ~ 207 Mb
Scans Included (JPG, 300 dpi) | RAR 5% Recovery
Blues Rock, Boogie Rock, Rock & Roll, Classic Rock | EMI/Capital Records #72435-98430-2-5

"George Thorogood is an American blues rock musician from Wilmington, Delaware. His "high-energy boogie-blues" sound became a staple of 1980s rock radio, with hits like his original songs "Bad to the Bone" and "I Drink Alone". He has also helped popularize older songs by American icons, such as "Move It on Over," "Who Do You Love?" and "House Rent Boogie/One Bourbon, One Scotch, One Beer", which became staples of classic rock radio. With his band, the Delaware Destroyers, Thorogood has released over 20 albums, of which two have been certified Platinum and six have been certified Gold. He has sold 15 million albums worldwide. Thorogood and band continue to tour extensively and in 2014 celebrated their 40th anniversary performing..."

Official Website | Wiki | Discogs | All Music
***************

George Thorogood & The Destroyers - Greatest Hits: 30 Years Of Rock (2004)

Track List:

01. Madison Blues [04:29]
02. One Bourbon, One Scotch, One Beer [08:27]
03. Move It On Over [04:19]
04. Who Do You Love? [04:26]
05. Bad To The Bone [04:50]
06. I Drink Alone [04:33]
07. Gear Jammer [04:34]
08. Willie And The Hand Jive [04:04]
09. The Sky Is Crying (Live) [08:02]
10. Reelin' & Rockin' (Live) [05:49]
11. You Talk Too Much [04:35]
12. If You Don't Start Drinkin' (I'm Gonna Leave) [04:12]
13. Get A Haircut [04:08]
14. Rockin' My Life Away (Alternate Take) [03:29]
15. American Made [04:07]
16. Who Do You Love? (Rothrock Remix 2004) [03:35]

Exact Audio Copy V1.0 beta 3 from 29. August 2011

EAC extraction logfile from 26. May 2015, 23:36

George Thorogood & The Destroyers / Greatests Hits: 30 Years Of Rock

Used drive : PIONEER BD-RW BDR-TD03 Adapter: 0 ID: 1

Read mode : Secure
Utilize accurate stream : Yes
Defeat audio cache : Yes
Make use of C2 pointers : No

Read offset correction

: 667
Overread into Lead-In and Lead-Out : No
Fill up missing offset samples with silence : Yes
Delete leading and trailing silent blocks : No
Null samples used in CRC calculations : Yes
Used interface
: Native Win32 interface for Win NT & 2000

Used output format : User Defined Encoder
Selected bitrate : 768 kBit/s
Quality : High
Add ID3 tag : No
Command line compressor : C:\Program Files (x86)\Exact Audio Copy\FLAC\FLAC.EXE
Additional command line options : -6 -V -T "ARTIST=%artist%" -T "TITLE=%title%" -T "ALBUM=%albumtitle%" -T "DATE=%year%" -T "TRACKNUMBER=%tracknr%" -T "GENRE=%genre%" -T "COMMENT=%comment%" -T "BAND=%albuminterpret%" -T "ALBUMARTIST=%albuminterpret%" -T "COMPOSER=%composer%" %haslyrics%--tag-from-file=LYRICS="%lyricsfile%"%haslyrics% -T "DISCNUMBER=%cdnumber%" -T "TOTALDISCS=%totalcds%" -T "TOTALTRACKS=%numtracks%" %hascover%--picture="%coverfile%"%hascover% %source% -o %dest%

TOC of the extracted CD Track | Start | Length | Start sector | End sector
1 | 0:00.00 | 4:28.28 | 0 | 20127 2 | 4:28.28 | 8:26.44 | 20128 | 58121 3 | 12:54.72 | 4:19.00 | 58122 | 77546 4 | 17:13.72 | 4:25.37 | 77547 | 97458 5 | 21:39.34 | 4:49.64 | 97459 | 119197 6 | 26:29.23 | 4:32.03 | 119198 | 139600 7 | 31:01.26 | 4:33.49 | 139601 | 160124 8 | 35:35.00 | 4:03.63 | 160125 | 178412 9 | 39:38.63 | 8:01.43 | 178413 | 214530
10 | 47:40.31 | 5:48.72 | 214531 | 240702
11 | 53:29.28 | 4:34.35 | 240703 | 261287
12 | 58:03.63 | 4:11.64 | 261288 | 280176
13 | 62:15.52 | 4:07.33 | 280177 | 298734
14 | 66:23.10 | 3:28.08 | 298735 | 314342
15 | 69:51.18 | 4:06.65 | 314343 | 332857
16 | 73:58.08 | 3:34.71 | 332858 | 348978

Range status and errors

Selected range Filename C:\Users\Deris\Desktop\GeoGoodGr\George Thorogood & The Destroyers - Greatests Hits- 30 Years Of Rock.wav Peak level 100.0 %
Extraction speed 5.1 X
Range quality 100.0 %
Test CRC 9C031CB2
Copy CRC 9C031CB2
Copy OK

No errors occurred


AccurateRip summary

Track 1 accurately ripped (confidence 83) [E24689F1] (AR v2)
Track 2 accurately ripped (confidence 83) [54045BCF] (AR v2)
Track 3 accurately ripped (confidence 83) A7359FC (AR v2)
Track 4 accurately ripped (confidence 82) [21044FF8] (AR v2)
Track 5 accurately ripped (confidence 83) [33D20D18] (AR v2)
Track 6 accurately ripped (confidence 83) [8FB3118C] (AR v2)
Track 7 accurately ripped (confidence 83) [C1EE38BC] (AR v2)
Track 8 accurately ripped (confidence 83) [FDFC8E97] (AR v2)
Track 9 accurately ripped (confidence 83) [815745B8] (AR v2)
Track 10 accurately ripped (confidence 82) [8CCAD05B] (AR v2)
Track 11 accurately ripped (confidence 82) [73C1D952] (AR v2)
Track 12 accurately ripped (confidence 78) [558F647B] (AR v2)
Track 13 accurately ripped (confidence 80) [86F5B666] (AR v2)
Track 14 accurately ripped (confidence 79) [A81087A8] (AR v2)
Track 15 accurately ripped (confidence 77) [4DB1399F] (AR v2)
Track 16 accurately ripped (confidence 77) [AF854617] (AR v2)

All tracks accurately ripped

End of status report

---- CUETools DB Plugin V2.1.3

[CTDB TOCID: be3uqHSr5yJNFuwxxbrlPBIzcOs-] found, Submit result: be3uqHSr5yJNFuwxxbrlPBIzcOs- has been confirmed
[462d2223] (096/113) Accurately ripped
[414f70ae] (008/113) Differs in 224 samples @00:17:39,11:45:37
[a1144bde] (001/113) No match
[840af95a] (001/113) No match
[a2f57795] (001/113) No match
[1905e7ca] (001/113) No match
[978f5d54] (001/113) No match
[84f95ab0] (001/113) No match
[f437dbed] (001/113) No match
[6ca4da14] (001/113) No match
[c30f7b29] (001/113) No match
You can use CUETools to repair this rip.

==== Log checksum 1BB1EDE37E655E7BAEBFBD64848D4E8B64F0F8CC4ED55410964880F9AE8A0612 ====

foobar2000 1.2.6 / Dynamic Range Meter 1.1.1
log date: 2015-06-02 21:59:01

------
Analyzed: George Thorogood & The Destroyers / Greatests Hits: 30 Years Of Rock
------

DR Peak RMS Duration Track
------
DR8 0.00 dB -8.78 dB 4:28 01-Madison Blues
DR9 -0.10 dB -9.75 dB 8:27 02-One Bourbon, One Scotch, One Beer
DR8 -0.13 dB -8.53 dB 4:19 03-Move It On Over
DR8 -0.19 dB -8.53 dB 4:25 04-Who Do You Love?
DR7 -0.05 dB -8.26 dB 4:50 05-Bad To The Bone
DR7 -0.21 dB -8.77 dB 4:32 06-I Drink Alone
DR7 -0.09 dB -7.90 dB 4:34 07-Gear Jammer
DR7 -0.12 dB -7.89 dB 4:04 08-Willie And The Hand Jive
DR8 -0.08 dB -10.38 dB 8:02 09-The Sky Is Crying (Live)
DR8 -0.05 dB -10.03 dB 5:49 10-Reelin' & Rockin' (Live)
DR7 -0.01 dB -8.10 dB 4:34 11-You Talk Too Much
DR7 -0.23 dB -8.52 dB 4:12 12-If You Don't Start Drinkin' (I'm Gonna Leave)
DR7 -0.27 dB -8.85 dB 4:07 13-Get A Haircut
DR7 -0.07 dB -7.96 dB 3:28 14-Rockin' My Life Away (Alternate Take)
DR5 -2.10 dB -8.36 dB 4:07 15-American Made
DR7 -0.01 dB -9.69 dB 3:35 16-Who Do You Love? (Rothrock Remix 2004)
------

Number of tracks: 16
Official DR value: DR7

Samplerate: 44100 Hz
Channels: 2
Bits per sample: 16
Bitrate: 1003 kbps
Codec: FLAC

[CUETools log; Date: 02.06.2015 21:35:33; Version: 2.1.5]
[CTDB TOCID: be3uqHSr5yJNFuwxxbrlPBIzcOs-] found.
Track | CTDB Status
1 | (111/120) Accurately ripped, or (8/120) differs in 44 samples @00:17:39
2 | (111/120) Accurately ripped, or (8/120) differs in 180 samples @07:17:09
3 | (120/120) Accurately ripped
4 | (119/120) Accurately ripped
5 | (120/120) Accurately ripped
6 | (119/120) Accurately ripped
7 | (120/120) Accurately ripped
8 | (120/120) Accurately ripped
9 | (120/120) Accurately ripped
10 | (120/120) Accurately ripped
11 | (120/120) Accurately ripped
12 | (119/120) Accurately ripped
13 | (120/120) Accurately ripped
14 | (118/120) Accurately ripped
15 | (119/120) Accurately ripped
16 | (117/120) Accurately ripped
[AccurateRip ID: 002ff23f-02396cc0-e0122d10] found.
Track [ CRC | V2 ] Status
01 [435d398a|e24689f1] (121+083/341) Accurately ripped
02 [d1176e0e|54045bcf] (121+083/340) Accurately ripped
03 b4bb2a7|ba7359fc (120+083/338) Accurately ripped
04 [daa20fcd|21044ff8] (119+082/339) Accurately ripped
05 60ad541|33d20d18 (118+083/338) Accurately ripped
06 [7eab3cc7|8fb3118c] (120+083/340) Accurately ripped
07 [12a04a6d|c1ee38bc] (120+083/339) Accurately ripped
08 [7ac1dc2f|fdfc8e97] (120+083/340) Accurately ripped
09 [49d5a8cf|815745b8] (120+083/335) Accurately ripped
10 2d81f13|8ccad05b (119+082/336) Accurately ripped
11 [1089af7d|73c1d952] (120+082/338) Accurately ripped
12 [126cde46|558f647b] (120+078/332) Accurately ripped
13 [8854deb9|86f5b666] (119+080/334) Accurately ripped
14 [f39d34f8|a81087a8] (119+079/331) Accurately ripped
15 09b52f9|4db1399f (118+077/327) Accurately ripped
16 [3628772f|af854617] (112+077/312) Accurately ripped
Offsetted by -1986:
01 [fd7158c0] (012/341) Accurately ripped
02 [5ecadc3a] (012/340) Accurately ripped
03 [e3bea6c5] (011/338) Accurately ripped
04 [32138348] (012/339) Accurately ripped
05 [f79ee854] (010/338) Accurately ripped
06 [8ceca7a7] (011/340) Accurately ripped
07 [481fc2db] (011/339) Accurately ripped
08 3e151c3 (012/340) Accurately ripped
09 [c64fe5db] (011/335) Accurately ripped
10 [c51d774b] (011/336) Accurately ripped
11 [25c468d7] (012/338) Accurately ripped
12 [d40de1dc] (011/332) Accurately ripped
13 [c5f80a67] (011/334) Accurately ripped
14 [c05f4b18] (010/331) Accurately ripped
15 [fd8e86fd] (011/327) Accurately ripped
16 [951f62cb] (010/312) Accurately ripped
Offsetted by -1322:
01 [45cd9db8] (013/341) Accurately ripped
02 [aa589d06] (013/340) Accurately ripped
03 [5c57ea34] (013/338) Accurately ripped
04 265e21f (013/339) Accurately ripped
05 [39be024a] (013/338) Accurately ripped
06 [6a82bd27] (013/340) Accurately ripped
07 [fce32f1d] (013/339) Accurately ripped
08 [2ed99136] (013/340) Accurately ripped
09 [c78dcb70] (012/335) Accurately ripped
10 [21f5c6e1] (013/336) Accurately ripped
11 [d46bf11f] (013/338) Accurately ripped
12 [d8ec6a54] (013/332) Accurately ripped
13 [901aafbf] (013/334) Accurately ripped
14 [2ed46998] (013/331) Accurately ripped
15 [d2d06bcd] (011/327) Accurately ripped
16 [11dc0a7b] (013/312) Accurately ripped
Offsetted by -1310:
01 [6c1f79f4] (007/341) Accurately ripped
02 [e01ea516] (007/340) Accurately ripped
03 [70396469] (007/338) Accurately ripped
04 [8fd0da89] (007/339) Accurately ripped
05 [9bdea383] (007/338) Accurately ripped
06 88a13e7 (007/340) Accurately ripped
07 [4ad5220a] (007/339) Accurately ripped
08 [630454db] (007/340) Accurately ripped
09 [0167ea6e] (007/335) Accurately ripped
10 [7798006d] (007/336) Accurately ripped
11 [16ce9583] (007/338) Accurately ripped
12 [7965a450] (007/332) Accurately ripped
13 [c830e72b] (007/334) Accurately ripped
14 [5f174cd8] (007/331) Accurately ripped
15 [6c4230b5] (007/327) Accurately ripped
16 c35cfd3 (005/312) Accurately ripped
Offsetted by -732:
01 [21dbbf3e] (005/341) Accurately ripped
02 [d3fb1640] (004/340) Accurately ripped
03 [4c235250] (004/338) Accurately ripped
04 [3a587d0f] (004/339) Accurately ripped
05 [987b3db8] (004/338) Accurately ripped
06 [e6eb9107] (004/340) Accurately ripped
07 [4103b489] (004/339) Accurately ripped
08 [7d9cb9b2] (004/340) Accurately ripped
09 [3a4325d3] (004/335) Accurately ripped
10 [81b42c8c] (004/336) Accurately ripped
11 [3f0883a9] (004/338) Accurately ripped
12 [d58a0d3a] (004/332) Accurately ripped
13 [2b09a9fd] (004/334) Accurately ripped
14 [73ad0eb8] (004/331) Accurately ripped
15 [207f67b1] (005/327) Accurately ripped
16 [9ec47137] (003/312) Accurately ripped
Offsetted by -664:
01 [fb00f492] (020/341) Accurately ripped
02 e104376 (020/340) Accurately ripped
03 [fe42a83e] (019/338) Accurately ripped
04 [a410e7a7] (020/339) Accurately ripped
05 [6dc21088] (021/338) Accurately ripped
06 [a1152747] (020/340) Accurately ripped
07 [c4c48a48] (020/339) Accurately ripped
08 [c8f7948f] (020/340) Accurately ripped
09 [7c560508] (019/335) Accurately ripped
10 [fa02319f] (020/336) Accurately ripped
11 [61e22735] (020/338) Accurately ripped
12 [0d8e55ce] (020/332) Accurately ripped
13 e323961 (019/334) Accurately ripped
14 [85281678] (020/331) Accurately ripped
15 [db596e29] (019/327) Accurately ripped
16 96bcf7f (018/312) Accurately ripped
Offsetted by 646:
01 [d23eb428] (017/341) Accurately ripped
02 [fad1129f] (018/340) Accurately ripped
03 [684a04a8] (017/338) Accurately ripped
04 [f0306cd1] (018/339) Accurately ripped
05 [e2f1fdd7] (017/338) Accurately ripped
06 [67365027] (018/340) Accurately ripped
07 2cbf5f6 (017/339) Accurately ripped
08 [946f3648] (017/340) Accurately ripped
09 [084a8634] (016/335) Accurately ripped
10 [d6dd16ca] (017/336) Accurately ripped
11 [5b9d412f] (016/338) Accurately ripped
12 [a6958fc4] (016/332) Accurately ripped
13 [7e5630ef] (017/334) Accurately ripped
14 [19adfe98] (016/331) Accurately ripped
15 [1fb2906d] (016/327) Accurately ripped
16 [335e76db] (016/312) Accurately ripped
Offsetted by -784:
01 [7bce5a3a] (000/341) No match (V2 was not tested)
02 [da02769b] (000/340) No match (V2 was not tested)
03 [9fc74626] (000/338) No match (V2 was not tested)
04 54c4730 (000/339) No match (V2 was not tested)
05 [498fbbaa] (000/338) No match (V2 was not tested)
06 [94cbc3c7] (000/340) No match (V2 was not tested)
07 [12613ebd] (000/339) No match (V2 was not tested)
08 [69e9e2ef] (000/340) No match (V2 was not tested)
09 [1727f5d0] (000/335) No match (V2 was not tested)
10 [a7aba0c2] (000/336) No match (V2 was not tested)
11 [ca07bb4d] (000/338) No match (V2 was not tested)
12 [c8d211f6] (000/332) No match (V2 was not tested)
13 [8d540f29] (000/334) No match (V2 was not tested)
14 [a28b35f8] (000/331) No match (V2 was not tested)
15 [dce7bd19] (000/327) No match (V2 was not tested)
16 [11ea1a0f] (000/312) No match (V2 was not tested)
Offsetted by -156:
01 [51350a7e] (000/341) No match (V2 was not tested)
02 [1df07d67] (000/340) No match (V2 was not tested)
03 [142825be] (002/338) Accurately ripped
04 [f09be757] (002/339) Accurately ripped
05 [d6dcd6fb] (002/338) Accurately ripped
06 [884bd507] (002/340) Accurately ripped
07 0410ef6 (002/339) Accurately ripped
08 [8d890512] (002/340) Accurately ripped
09 [12b06377] (002/335) Accurately ripped
10 [f14f62d3] (002/336) Accurately ripped
11 1875669 (002/338) Accurately ripped
12 [ec44ec7a] (002/332) Accurately ripped
13 [af340e3d] (002/334) Accurately ripped
14 [8037aab8] (002/331) Accurately ripped
15 [e5d45331] (002/327) Accurately ripped
16 [8f9971b7] (002/312) Accurately ripped
Offsetted by -54:
01 [16ecda7c] (000/341) No match (V2 was not tested)
02 [c9f521fc] (000/340) No match (V2 was not tested)
03 [e9ef6da6] (000/338) No match (V2 was not tested)
04 [8ea11758] (000/339) No match (V2 was not tested)
05 [e31b6d51] (000/338) No match (V2 was not tested)
06 [9f8a3667] (000/340) No match (V2 was not tested)
07 [5eee4911] (000/339) No match (V2 was not tested)
08 [7a9b0e8f] (000/340) No match (V2 was not tested)
09 [3757421e] (000/335) No match (V2 was not tested)
10 [045ccada] (000/336) No match (V2 was not tested)
11 [e5cdcbbb] (000/338) No match (V2 was not tested)
12 [c04b5958] (000/332) No match (V2 was not tested)
13 [0bf0e553] (000/334) No match (V2 was not tested)
14 [1a703658] (000/331) No match (V2 was not tested)
15 [7e1b5ce5] (000/327) No match (V2 was not tested)
16 7947f23 (000/312) No match (V2 was not tested)
Offsetted by -48:
01 [aa15c89a] (000/341) No match (V2 was not tested)
02 [ad56a845] (000/340) No match (V2 was not tested)
03 [da9a0ef6] (000/338) No match (V2 was not tested)
04 [f24161aa] (000/339) No match (V2 was not tested)
05 [a5febe3a] (000/338) No match (V2 was not tested)
06 [468de1c7] (000/340) No match (V2 was not tested)
07 3b1ff25 (000/339) No match (V2 was not tested)
08 [149cacbd] (000/340) No match (V2 was not tested)
09 [2ae2d582] (000/335) No match (V2 was not tested)
10 [136ec0f2] (000/336) No match (V2 was not tested)
11 [06ff1ded] (000/338) No match (V2 was not tested)
12 [9087f656] (000/332) No match (V2 was not tested)
13 [a7fc0109] (000/334) No match (V2 was not tested)
14 [3291a7f8] (000/331) No match (V2 was not tested)
15 [4ad43f59] (000/327) No match (V2 was not tested)
16 [8cc161cf] (000/312) No match (V2 was not tested)
Offsetted by -36:
01 [d067a4d6] (002/341) Accurately ripped
02 [649b7230] (002/340) Accurately ripped
03 [cd52bcbe] (002/338) Accurately ripped
04 [f491411a] (002/339) Accurately ripped
05 [2e7c5b47] (002/338) Accurately ripped
06 [94953887] (002/340) Accurately ripped
07 [5d396b4d] (002/339) Accurately ripped
08 [9dd1aa99] (002/340) Accurately ripped
09 [22d53a29] (002/335) Accurately ripped
10 [7dd99d03] (002/336) Accurately ripped
11 [4961c251] (002/338) Accurately ripped
12 [31013052] (002/332) Accurately ripped
13 [e0123875] (002/334) Accurately ripped
14 [62d48b38] (002/331) Accurately ripped
15 [e4460441] (002/327) Accurately ripped
16 [371b2727] (000/312) No match (V2 was not tested)
Offsetted by -18:
01 [89e26f30] (000/341) No match (V2 was not tested)
02 [1854c59c] (000/340) No match (V2 was not tested)
03 [f08ef2e3] (000/338) No match (V2 was not tested)
04 [0077ac28] (000/339) No match (V2 was not tested)
05 [7c6a32fc] (000/338) No match (V2 was not tested)
06 [89a03aa7] (000/340) No match (V2 was not tested)
07 [f4c2ca5b] (000/339) No match (V2 was not tested)
08 [56fcf6f2] (000/340) No match (V2 was not tested)
09 [f5c446d9] (000/335) No match (V2 was not tested)
10 [dbe65d56] (000/336) No match (V2 was not tested)
11 [acf5b8e7] (000/338) No match (V2 was not tested)
12 [a1b7074c] (000/332) No match (V2 was not tested)
13 4338b97 (000/334) No match (V2 was not tested)
14 [ab38e018] (000/331) No match (V2 was not tested)
15 [4a70ab9d] (000/327) No match (V2 was not tested)
16 6a1cf2b (000/312) No match (V2 was not tested)
Offsetted by -6:
01 0344b6c (002/341) Accurately ripped
02 [62c22d7b] (000/340) No match (V2 was not tested)
03 4f0a4c1 (002/338) Accurately ripped
04 [22c618b5] (002/339) Accurately ripped
05 [fbd9a492] (002/338) Accurately ripped
06 [d7a79167] (002/340) Accurately ripped
07 [a72c4fb7] (002/339) Accurately ripped
08 [db342573] (002/340) Accurately ripped
09 [639163db] (002/335) Accurately ripped
10 [fe2b345b] (002/336) Accurately ripped
11 [ef585d4b] (002/338) Accurately ripped
12 [42304148] (002/332) Accurately ripped
13 [ec49c303] (002/334) Accurately ripped
14 [db7bc358] (002/331) Accurately ripped
15 [e3e27085] (002/327) Accurately ripped
16 [60fb9483] (002/312) Accurately ripped

Track Peak [ CRC32 ] [W/O NULL] [ LOG ]
-- 100,0 [9C031CB2] [AD797C6B] CRC32
01 100,0 [D9AA668B] 1F56612
02 98,8 [510C91DC] [D55E9DF0]
03 98,5 [21C2E6CA] [D19C7E43]
04 97,8 0E9A9B8 [A4DD7ACE]
05 99,4 [5A0D8E9A] [A4B9B057]
06 97,6 [767C9994] [31BEC172]
07 98,9 [A514D4ED] [9ED16E12]
08 98,6 8DDFB12 [21CCF27B]
09 99,1 [878A29BC] [A8246DB3]
10 99,3 [655A3726] [56C641A5]
11 99,8 [9BCD7EC1] [55E94F6B]
12 97,4 [75E8F909] [5ED409EA]
13 96,9 [F5DF4587] [FB8307A1]
14 99,1 [6179C59B] [9A193069]
15 78,5 [96EE2829] [AA303BF8]
16 99,9 [5CDC8B0F] [FF711613]

George Thorogood & The Destroyers - Greatest Hits: 30 Years Of Rock (2004)


DOWNLOAD LINKS
Buy Premium From My Links To Get Resumable Support & Max Speed & To Support Me


Links are Interchangeable - No Password - Single Extraction
Direct Download

Tags: George, Thorogood, Destroyers, Greatest

George Thorogood & The Destroyers - Greatest Hits: 30 Years Of Rock (2004) Download via Hotfile Rapidshare Fileserve Megaupload & FileSonic, George Thorogood & The Destroyers - Greatest Hits: 30 Years Of Rock (2004) free torrent downloads included crack, serial, keygen.George Thorogood & The Destroyers - Greatest Hits: 30 Years Of Rock (2004) Fast Download via Rapidshare Hotfile Fileserve Filesonic Megaupload, George Thorogood & The Destroyers - Greatest Hits: 30 Years Of Rock (2004) Torrents and Emule Download or anything related.
Leave a Comment
Your Name:
E-Mail:
Add Comments:

Enter Code: