The Cars - Unlocked (The Live Performances) [CD + DVD 2006] RE-UP

Download Now

The Cars - Unlocked (The Live Performances) [CD + DVD 2006] RE-UP

The Cars - Unlocked (The Live Performances) [CD+DVD 2006]
EAC-FLAC Image with CUE and LOG - 412 MB | All Scans | Full DVD - 5,7 GB | MP3 CBR 320 Kbps - 131 MB
Genre: Rock / New Wave | 56:27 mins / ~ 99 minutes | Label: WEA International (Russia) # 4670001545075-1/2

Founded in 1977 by Ric Ocasek and Benjamin Orr, The Cars shook up the music scene with their distinctive sound and modern aesthetic, both of which continue to influence musical style today. A dominant presence on the charts throughout the 1980s, the band released six multi-platinum albums that spawned over a dozen top twnty hits and led to sold out tours worldwide. Now you can experience the thrill of seeing The Cars live with THE CARS UNLOCKED. Featuring over twenty never-before-seen live performances from their sold-out U.S. tours plus interview footage, sound checks, slide shows, backstage antics, and home video shot by the band, this limited edition set is your key to unlock The Cars.
Produced by Ric Ocasek, Unlocked presents the Cars at their herky-jerky, hard-edged best. For those who followed the Beantown quintet in the 1980s, it's sure to come as a nostalgic experience--singer/bassist Benjamin Orr succumbed to cancer in 2000, while Todd Rundgren took Ocasek's place in 2006's "New Cars" reunion. Edited by Ocasek's son Eron, the 72-minute feature operates like a virtual scrapbook, alternating video-shot concert and backstage footage with radio interviews and stills. Consequently, as a disclaimer states at the beginning, the audio-visual quality is adequate at best. (Then again, this is a side of the band never captured by MTV.) Further, some of the bits are just plain silly, especially the dressing room antics. Fortunately, the rock-your-socks-off factor is high and there are unexpected surprises, like keyboard player Greg Hawkes's impromptu cover of the Cramps' "Human Fly." Of the performances, standouts include "My Best Friend's Girl" from 1979 and "Just What I Needed" from 1980, both recorded in Washington DC (like too many music films, locations are not identified until the end credits). Altogether, Unlocked exhumes 20 live tracks plus five bonus numbers, including an alternate version of Orr's enduring ballad "Drive."

"allmusic.com says: Despite being one of the top drawing new wave concert attractions during the early to mid-'80s, the Cars never got around to issuing an official live album during their career. Nearly 20 years after the original Cars lineup played their last show together, a live DVD/CD was issued, 2006's Unlocked. Compiled by Ric Ocasek, the DVD is quite a treat for longtime fans, as it mixes performances from throughout the years as well as interviews and behind-the-scenes goofiness. While the DVD does feature the expected hits ("Shake It Up," "Drive," "Good Times Roll"), there are also quite a few oddities included as well ("Gimme Some Slack," "Up and Down," "Don't You Stop"). And which Cars fan wouldn't be interested in seeing the band attempting to adapt to a backstage dressing room in a foreign land (Japan) or Greg Hawkes wearing a gigantic pillow over his head? The CD portion contains many of the same tracks, but also includes such non-DVD selections as "Touch and Go," "Hello Again," and "Nightspots." The visuals aren't as picture perfect as a digitally recorded concert from the modern day (it appears as though the source for much of the DVD is from video tape), but Unlocked is still a most welcome addition to the Cars' discography."


Tracks

CD:
01. Magic
02. Let's Go
03. Touch And Go
04. Drive
05. My Best Friends Girl
06. Tonight She Comes
07. Moving In Stereo
08. You Might Think
09. Just What I Needed
10. Good Times Roll
11. Hello Again
12. Double Trouble
13. Nightspots
14. Heartbeat City

Exact Audio Copy V0.99 prebeta 5 from 4. May 2009

EAC extraction logfile from 14. August 2010, 13:15

The Cars / Unlocked (The Live Performances)

Used drive : ASUS DRW-24B1ST Adapter: 3 ID: 0

Read mode : Secure
Utilize accurate stream : Yes
Defeat audio cache : Yes
Make use of C2 pointers : No

Read offset correction

: 6
Overread into Lead-In and Lead-Out : No
Fill up missing offset samples with silence : Yes
Delete leading and trailing silent blocks : No
Null samples used in CRC calculations : Yes
Used interface
: Installed external ASPI interface

Used output format : Internal WAV Routines
Sample format : 44.100 Hz; 16 Bit; Stereo

TOC of the extracted CD Track | Start | Length | Start sector | End sector
1 | 0:00.00 | 4:28.12 | 0 | 20111 2 | 4:28.12 | 3:42.03 | 20112 | 36764 3 | 8:10.15 | 4:59.45 | 36765 | 59234 4 | 13:09.60 | 3:54.10 | 59235 | 76794 5 | 17:03.70 | 3:39.21 | 76795 | 93240 6 | 20:43.16 | 3:51.66 | 93241 | 110631 7 | 24:35.07 | 4:25.73 | 110632 | 130579 8 | 29:01.05 | 3:15.59 | 130580 | 145263 9 | 32:16.64 | 3:27.43 | 145264 | 160831
10 | 35:44.32 | 3:34.45 | 160832 | 176926
11 | 39:19.02 | 3:58.32 | 176927 | 194808
12 | 43:17.34 | 4:11.51 | 194809 | 213684
13 | 47:29.10 | 3:31.57 | 213685 | 229566
14 | 51:00.67 | 5:26.44 | 229567 | 254060

Range status and errors

Selected range Filename D:\The Cars - Unlocked (The Live Performances) [CD+DVD 2006]\The Cars - Unlocked (The Live Performances).wav Peak level 100.0 %
Range quality 100.0 %
Test CRC 97B17688
Copy CRC 97B17688
Copy OK

No errors occurred


AccurateRip summary

Track 1 cannot be verified as accurate (confidence 7) [D41F2921], AccurateRip returned [74E3A1AC]
Track 2 cannot be verified as accurate (confidence 7) [FC17B02B], AccurateRip returned [F06DEAC0]
Track 3 cannot be verified as accurate (confidence 7) [23673900], AccurateRip returned [57C732C8]
Track 4 cannot be verified as accurate (confidence 7) [2916BA12], AccurateRip returned [134A452F]
Track 5 cannot be verified as accurate (confidence 7) [DDADD16F], AccurateRip returned [6E755ACD]
Track 6 cannot be verified as accurate (confidence 7) [C68E7E98], AccurateRip returned [F5307979]
Track 7 cannot be verified as accurate (confidence 7) [5D3A984B], AccurateRip returned [75C47A91]
Track 8 cannot be verified as accurate (confidence 7) [C7E590FF], AccurateRip returned [81AD0671]
Track 9 cannot be verified as accurate (confidence 7) [67AF22BB], AccurateRip returned [30EA02F7]
Track 10 cannot be verified as accurate (confidence 7) [55EFBB37], AccurateRip returned [433725DF]
Track 11 cannot be verified as accurate (confidence 7) [69346EDA], AccurateRip returned [59794B56]
Track 12 cannot be verified as accurate (confidence 7) [074813B4], AccurateRip returned [36DB3F58]
Track 13 cannot be verified as accurate (confidence 7) [3F27841C], AccurateRip returned [1A2F1D89]
Track 14 cannot be verified as accurate (confidence 7) [6BEB47B5], AccurateRip returned [D7816A98]

No tracks could be verified as accurate
You may have a different pressing from the one(s) in the database

End of status report
_______________________________________________

[CUETools log; Date: 14.08.2010 13:17:04; Version: 2.0.9]
[AccurateRip ID: 001d07a9-01337ff0-c30d3b0e] found.
Track [ CRC ] Status
01 [d41f2921] (0/7) No match
02 [fc17b02b] (0/7) No match
03 [23673900] (0/7) No match
04 [2916ba12] (0/7) No match
05 [ddadd16f] (0/7) No match
06 [c68e7e98] (0/7) No match
07 [5d3a984b] (0/7) No match
08 [c7e590ff] (0/7) No match
09 [67af22bb] (0/7) No match
10 [55efbb37] (0/7) No match
11 [69346eda] (0/7) No match
12 [074813b4] (0/7) No match
13 [3f27841c] (0/7) No match
14 [6beb47b5] (0/7) No match
Offsetted by 664:
01 [74e3a1ac] (7/7) Accurately ripped
02 [f06deac0] (7/7) Accurately ripped
03 [57c732c8] (7/7) Accurately ripped
04 [134a452f] (7/7) Accurately ripped
05 [6e755acd] (7/7) Accurately ripped
06 [f5307979] (7/7) Accurately ripped
07 [75c47a91] (7/7) Accurately ripped
08 [81ad0671] (7/7) Accurately ripped
09 [30ea02f7] (7/7) Accurately ripped
10 [433725df] (7/7) Accurately ripped
11 [59794b56] (7/7) Accurately ripped
12 [36db3f58] (7/7) Accurately ripped
13 [1a2f1d89] (7/7) Accurately ripped
14 [d7816a98] (7/7) Accurately ripped

Track Peak [ CRC32 ] [W/O NULL] [ LOG ]
-- 100,0 [97B17688] [5026CD7D] CRC32
01 99,9 [CA64875F] [132D4E46]
02 99,9 [85F4C946] [797C83EA]
03 99,9 [0538074E] [9845A692]
04 99,9 [EC6AC79E] [4A4FDC76]
05 100,0 [FFD682EB] [1E77CCEB]
06 99,9 [4BB155E4] [FDB6CF78]
07 99,9 [88F65657] [6DC67608]
08 99,9 [9245D8CB] [38C2B4FB]
09 99,9 [C71C70FF] [DF04AAA7]
10 99,9 [82367450] [34E4C860]
11 99,9 [336EEC94] [44C93097]
12 99,9 [7F2DBD03] [3F88A12B]
13 99,9 [1B25F7B0] [E360E60F]
14 100,0 [166E4FAA] [8F1B69C7]

DVD:
01. Intro
02. My Best Friends Girl
03. I'm in Touch with Your World nterview
04. Lets Go
05. The Hotel
06. Gimme Some Slack
07. Tokyo Sound Check
08. Up and Down
09. Just What I Needed
10. Dr. G
11. Don't Cha Stop
12. Moving in Stereo
13. Through to You nterview
14. Candy O
15. You Might Think
16. Drive
17. Nightspots
18. Sound Check
19. Tonight She Comes
20. Magic
21. Shake It Up
22. Good Times Roll
23. Other Bonus Material

Title: CARS_UNLOCKED_INTL
Size: 5.57 Gb ( 5838370 KBytes ) - DVD-9
Enabled regions: 1, 2, 3, 4, 5, 6, 7, 8

VTS_01 :
Play Length: 00:00:01+01:11:45+00:23:42+00:04:34+00:04:54+00:04:02+00:04:59+00:05:18+00:05:08
Video: NTSC 4:3 (720x480) VBR
Audio:
English (LinearPCM, 2 ch)
English (Dolby AC3, 6 ch)
Subtitles:
English
Francais
Portugues
Espanol

VTS_02 :
Play Length: 00:00:49
Video: NTSC 4:3 (720x480) VBR
Audio:
English (Dolby AC3, 2 ch)

Menu Video:
NTSC 4:3 (720x480) VBR
Menu Audio:
Not specified (Dolby AC3, 2 ch)
Menu Subtitles:
Not specified
Menu English Language Unit :
Root Menu

New concert film with over 20 never-before-seen live performances, rare interview footage, sound checks, home video, and more.
ISO+MDS files / Full Frame + Letterbox / LPCM Stereo + DD 5.1 Sound / Region 0 / NTSC TV system.

Compiled by Ric Okasek. Recorded between 1978-1987.
* This is budget low-priced edition. It not contains a thick photobook.
DOWNLOAD LINKS
Buy Premium From My Links To Get Resumable Support & Max Speed & To Support Me

Rapidgator.net:
http://rapidgator.net/file/3665d8ae442f74566d3930ef9f3ab3eb/q1y9f.Cars2006DVD.part1.rar.html
http://rapidgator.net/file/f56ab4d892c6a4e199af171573a051d6/q1y9f.Cars2006DVD.part2.rar.html
http://rapidgator.net/file/9fd5b15fce6f46f02a5e83c03033dfbb/q1y9f.Cars2006DVD.part3.rar.html
http://rapidgator.net/file/1c18f70a345317a627936f46e89eebdf/q1y9f.Cars2006DVD.part4.rar.html
http://rapidgator.net/file/c689abcdb8354e2fb85196a456045995/q1y9f.Cars2006DVD.part5.rar.html
http://rapidgator.net/file/fa006310ef9153a4d36f2ef78a163285/q1y9f.Cars2006DVD.part6.rar.html
http://rapidgator.net/file/51292fd22dfa758029b9c5976a5c4e7d/q1y9f.Cars2006DVD.part7.rar.html
http://rapidgator.net/file/32cb3cd1660bb2d225aaa182d97584af/q1y9f.Cars2006LC.rar.html
http://rapidgator.net/file/84bcdcdcc7d610e2e6b107ed22068551/q1y9f.Cars2006MC.rar.html

Uploadable.ch:
http://www.uploadable.ch/file/ANmYegdZf49K/q1y9f.Cars2006DVD.part1.rar
http://www.uploadable.ch/file/vpYx8rBKKeBm/q1y9f.Cars2006DVD.part2.rar
http://www.uploadable.ch/file/MDKx5a7veRH4/q1y9f.Cars2006DVD.part3.rar
http://www.uploadable.ch/file/ZfDpwFvXpKU8/q1y9f.Cars2006DVD.part4.rar
http://www.uploadable.ch/file/AX3m9Vza9AMA/q1y9f.Cars2006DVD.part5.rar
http://www.uploadable.ch/file/prnDyHxeyfgG/q1y9f.Cars2006DVD.part6.rar
http://www.uploadable.ch/file/h6PdRR2GH9RJ/q1y9f.Cars2006DVD.part7.rar
http://www.uploadable.ch/file/V6phhw7g4JJq/q1y9f.Cars2006LC.rar
http://www.uploadable.ch/file/epZkqEu8QMrb/q1y9f.Cars2006MC.rar

Uploaded.net:
http://uploaded.net/file/jidgnk6s/q1y9f.Cars2006DVD.part1.rar
http://uploaded.net/file/0zpr9k5x/q1y9f.Cars2006DVD.part2.rar
http://uploaded.net/file/0qp1rd3b/q1y9f.Cars2006DVD.part3.rar
http://uploaded.net/file/0r4aumya/q1y9f.Cars2006DVD.part4.rar
http://uploaded.net/file/8vugn1ar/q1y9f.Cars2006DVD.part5.rar
http://uploaded.net/file/hwb6jaoi/q1y9f.Cars2006DVD.part6.rar
http://uploaded.net/file/r1z2sack/q1y9f.Cars2006DVD.part7.rar
http://uploaded.net/file/6c6ybomm/q1y9f.Cars2006LC.rar
http://uploaded.net/file/fzvbnwor/q1y9f.Cars2006MC.rar

Links are Interchangeable - No Password - Single Extraction
Direct Download

Tags: Unlocked, Performances

The Cars - Unlocked (The Live Performances) [CD + DVD 2006] RE-UP Download via Hotfile Rapidshare Fileserve Megaupload & FileSonic, The Cars - Unlocked (The Live Performances) [CD + DVD 2006] RE-UP free torrent downloads included crack, serial, keygen.The Cars - Unlocked (The Live Performances) [CD + DVD 2006] RE-UP Fast Download via Rapidshare Hotfile Fileserve Filesonic Megaupload, The Cars - Unlocked (The Live Performances) [CD + DVD 2006] RE-UP Torrents and Emule Download or anything related.
Leave a Comment
Your Name:
E-Mail:
Add Comments:

Enter Code: