Yes - Yesshows (1980)

Download Now

Yes - Yesshows (1980)

Yes - Yesshows (1980)
EAC | Flac(Image) + Cue + Log & MP3 CBR 320Kbps
2CD | 1994 | Atlantic, 7567-82686-2 | ~ 518 or 186 Mb | Scans(500dpi, jpg) -> 52 Mb
Progressive Rock

"The second official concert package from Yes contains tunes recorded over a span of two years (1976-1978) and two different incarnations of the band. Like its live predecessor Yessongs (1973), Yesshows finds the combo during one of their states of perpetual change..."


Tracklist CD1:

01. Parallels (7:07)
02. Time And A Word (4:06)
03. Going For The One (5:22)
04. The Gates Of Delirium (22:41)

Exact Audio Copy V1.0 beta 3 from 29. August 2011

EAC extraction logfile from 8. August 2012, 11:28

Yes / Yesshows [Disc 1]

Used drive : TSSTcorpCDDVDW SH-S203B Adapter: 2 ID: 0

Read mode : Secure
Utilize accurate stream : Yes
Defeat audio cache : Yes
Make use of C2 pointers : No

Read offset correction

: 6
Overread into Lead-In and Lead-Out : No
Fill up missing offset samples with silence : Yes
Delete leading and trailing silent blocks : No
Null samples used in CRC calculations : Yes
Used interface
: Native Win32 interface for Win NT & 2000

Used output format : Internal WAV Routines
Sample format : 44.100 Hz; 16 Bit; Stereo

TOC of the extracted CD Track | Start | Length | Start sector | End sector
1 | 0:00.00 | 7:06.63 | 0 | 32012 2 | 7:06.63 | 4:05.70 | 32013 | 50457 3 | 11:12.58 | 5:22.27 | 50458 | 74634 4 | 16:35.10 | 22:40.45 | 74635 | 176679

Range status and errors

Selected range Filename C:\Incoming\Rips by unclesandy\Yes . 1980 . Yesshows . Disc 01 (RM Gastwirt 1994).wav Peak level 94.4 %
Extraction speed 2.6 X
Range quality 100.0 %
Test CRC 5CD413C0
Copy CRC 5CD413C0
Copy OK

No errors occurred


AccurateRip summary

Track 1 cannot be verified as accurate (confidence 19) [D71495DF], AccurateRip returned [CE7434DA] (AR v2)
Track 2 cannot be verified as accurate (confidence 19) [8705FA42], AccurateRip returned [48714731] (AR v2)
Track 3 cannot be verified as accurate (confidence 19) [ED5EA780], AccurateRip returned [2C4AF397] (AR v2)
Track 4 cannot be verified as accurate (confidence 15) [7631FDA8], AccurateRip returned [37CF5C87] (AR v2)

No tracks could be verified as accurate
You may have a different pressing from the one(s) in the database

End of status report

==== Log checksum 5DA509CFD04B416A0043C290CC072029373648C131B4F7C9AD1839E50201AD08 ====

foobar2000 1.2.9 / Dynamic Range Meter 1.1.1
log date: 2015-06-02 01:37:48

------
Analyzed: Yes / Yesshows [Disc 1]
------

DR Peak RMS Duration Track
------
DR11 -0.50 dB -13.86 dB 7:07 01-Parallels
DR13 -0.50 dB -15.67 dB 4:06 02-Time And A Word
DR11 -0.50 dB -13.71 dB 5:22 03-Going For The One
DR12 -0.50 dB -15.16 dB 22:41 04-The Gates Of Delirium
------

Number of tracks: 4
Official DR value: DR12

Samplerate: 44100 Hz
Channels: 2
Bits per sample: 16
Bitrate: 889 kbps
Codec: FLAC

[CUETools log; Date: 02.06.2015 1:37:47; Version: 2.1.4]
[CTDB TOCID: t3RJQT__5SOs0q_jMaTeOWRp0hg-] found.
Track | CTDB Status
1 | (23/23) Accurately ripped
2 | (23/23) Accurately ripped
3 | (23/23) Accurately ripped
4 | (18/23) Accurately ripped, or (3/23) differs in 1 samples @22:40:34, or (2/23) differs in 4121 samples @22:40:27-22:40:34
[AccurateRip ID: 000517da-0015525d-3a093304] found.
Track [ CRC | V2 ] Status
01 [7cfa8ffd|d71495df] (00+09/47) Accurately ripped
02 [ab31e591|8705fa42] (00+09/47) Accurately ripped
03 [41278f44|ed5ea780] (00+09/47) Accurately ripped
04 [88ada317|7631fda8] (00+08/46) Accurately ripped
Offsetted by 664:
01 [ce7434da] (19/47) Accurately ripped
02 [48714731] (19/47) Accurately ripped
03 [2c4af397] (19/47) Accurately ripped
04 [37cf5c87] (15/46) Accurately ripped
Offsetted by -218:
01 [a9304596] (00/47) No match (V2 was not tested)
02 [227cec0e] (00/47) No match (V2 was not tested)
03 [ef9ad154] (00/47) No match (V2 was not tested)
04 [90704a73] (00/46) No match (V2 was not tested)

Track Peak [ CRC32 ] [W/O NULL] [ LOG ]
-- 94,4 [5CD413C0] [42AA0EBC] CRC32
01 94,4 [4884D8B3] [426B4978]
02 94,4 [8687DF29] [3BE87C5D]
03 94,4 [897F9DAE] [36F9B166]
04 94,4 [D9EBC493] [12FC7D3B]

Yes - Yesshows (1980)

Tracklist CD2:

01. Don't Kill The Whale (6:50)
02. Ritual (Nous Sommes Du Soleil) [Part 1] (11:48)
03. Ritual (Nous Sommes Du Soleil) [Part 2] (17:07)
04. Wonderous Stories (3:54)

Exact Audio Copy V1.0 beta 3 from 29. August 2011

EAC extraction logfile from 8. August 2012, 11:49

Yes / Yesshows [Disc 2]

Used drive : TSSTcorpCDDVDW SH-S203B Adapter: 2 ID: 0

Read mode : Secure
Utilize accurate stream : Yes
Defeat audio cache : Yes
Make use of C2 pointers : No

Read offset correction

: 6
Overread into Lead-In and Lead-Out : No
Fill up missing offset samples with silence : Yes
Delete leading and trailing silent blocks : No
Null samples used in CRC calculations : Yes
Used interface
: Native Win32 interface for Win NT & 2000

Used output format : Internal WAV Routines
Sample format : 44.100 Hz; 16 Bit; Stereo

TOC of the extracted CD Track | Start | Length | Start sector | End sector
1 | 0:00.00 | 6:50.15 | 0 | 30764 2 | 6:50.15 | 11:48.20 | 30765 | 83884 3 | 18:38.35 | 17:06.67 | 83885 | 160901 4 | 35:45.27 | 3:53.60 | 160902 | 178436

Range status and errors

Selected range Filename C:\Incoming\Rips by unclesandy\Yes . 1980 . Yesshows . Disc 02 (RM Gastwirt 1994).wav Peak level 94.4 %
Extraction speed 6.4 X
Range quality 100.0 %
Test CRC C223109D
Copy CRC C223109D
Copy OK

No errors occurred


AccurateRip summary

Track 1 cannot be verified as accurate (confidence 24) [5B4D7EF0], AccurateRip returned [1211ED8D] (AR v2)
Track 2 cannot be verified as accurate (confidence 24) [C7B66B04], AccurateRip returned [9D698F57] (AR v2)
Track 3 cannot be verified as accurate (confidence 24) [A5A5B01C], AccurateRip returned [CCB5E8B2] (AR v2)
Track 4 cannot be verified as accurate (confidence 24) [F22D9126], AccurateRip returned [D44745BA] (AR v2)

No tracks could be verified as accurate
You may have a different pressing from the one(s) in the database

End of status report

==== Log checksum A45D5E8F032FF7A54DC62EA575A85C96541B602B888C8BEC413FD36630B69A9E ====

foobar2000 1.2.9 / Dynamic Range Meter 1.1.1
log date: 2015-06-02 01:37:28

------
Analyzed: Yes / Yesshows [Disc 2]
------

DR Peak RMS Duration Track
------
DR12 -0.50 dB -15.32 dB 6:50 01-Don't Kill The Whale
DR12 -0.50 dB -15.24 dB 11:48 02-Ritual (Nous Sommes Du Soleil) [Part 1]
DR12 -0.50 dB -15.63 dB 17:07 03-Ritual (Nous Sommes Du Soleil) [Part 2]
DR13 -0.50 dB -15.26 dB 3:54 04-Wonderous Stories
------

Number of tracks: 4
Official DR value: DR12

Samplerate: 44100 Hz
Channels: 2
Bits per sample: 16
Bitrate: 850 kbps
Codec: FLAC

[CUETools log; Date: 02.06.2015 1:37:29; Version: 2.1.4]
[CTDB TOCID: hHjayNEiSU98_Jd1tV1ciCX79JE-] found.
Track | CTDB Status
1 | (18/18) Accurately ripped
2 | (18/18) Accurately ripped
3 | (18/18) Accurately ripped
4 | (18/18) Accurately ripped
[AccurateRip ID: 0006ed65-001c3693-1b094b04] found.
Track [ CRC | V2 ] Status
01 [03dd2e2b|5b4d7ef0] (03+08/49) Accurately ripped
02 [e2bd25a3|c7b66b04] (03+08/49) Accurately ripped
03 [fbfad3e4|a5a5b01c] (03+08/49) Accurately ripped
04 [60212a3a|f22d9126] (03+07/48) Accurately ripped
Offsetted by 664:
01 [1211ed8d] (24/49) Accurately ripped
02 [9d698f57] (24/49) Accurately ripped
03 [ccb5e8b2] (24/49) Accurately ripped
04 [d44745ba] (24/48) Accurately ripped
Offsetted by -213:
01 [46792209] (00/49) No match (V2 was not tested)
02 26c0905 (00/49) No match (V2 was not tested)
03 [c967792b] (00/49) No match (V2 was not tested)
04 [8664b210] (00/48) No match (V2 was not tested)

Track Peak [ CRC32 ] [W/O NULL] [ LOG ]
-- 94,4 [C223109D] [5ADA6975] CRC32
01 94,4 [5220667D] [885FBD2C]
02 94,4 [5C7C65DB] 7AC66AA
03 94,4 1A3A1A1 [517ABDC1]
04 94,4 [50BB7792] [5414DBCA]

Yes - Yesshows (1980)

DOWNLOAD:
Buy Premium From My Links To Get Resumable Support & Max Speed & To Support Me


Links are Interchangeable - No Password
Direct Download

Tags: Yesshows

Yes - Yesshows (1980) Download via Hotfile Rapidshare Fileserve Megaupload & FileSonic, Yes - Yesshows (1980) free torrent downloads included crack, serial, keygen.Yes - Yesshows (1980) Fast Download via Rapidshare Hotfile Fileserve Filesonic Megaupload, Yes - Yesshows (1980) Torrents and Emule Download or anything related.
Leave a Comment
Your Name:
E-Mail:
Add Comments:

Enter Code: