Carole King - Really Rosie (1975) [2007, Japanese Paper Sleeve]

Download Now

Carole King - Really Rosie (1975) [2007, Japanese Paper Sleeve]

Carole King - Really Rosie (1975) [2007, Japanese Paper Sleeve]
Pop/Rock, Children's, Stage & Screen | EAC Rip | FLAC, Tracks+CUE + LOG + Covers-600dpi (JPEG) | 33:26 Min | 292,19 Mb
Label: Epic (Japan) | Released: 2007, October, 31

"
Really Rosie is a musical with a book and lyrics by Maurice Sendak and music by Carole King. The musical is based on Sendak's books Chicken Soup with Rice, Pierre, One was Johnny, Alligators All Around (which compose 1962's The Nutshell Library), and The Sign on Rosie's Door (1960). Sendak based the story on a demonstrative little girl who used to sing and dance on the stoop of her building, whom he observed while he was a little boy growing up in Brooklyn.
"

Release of the album: 1975 [LP Ode Records, Cat.# PE 34955, USA]
Release of this CD: 2007, October, 31 [CD Epic (Japan), Cat.# EICP-847 / EAN: 4547366032543]
© 1975 CBS Inc.
Manufactured By - Sony Music Japan International Inc.

Carole King - Really Rosie (1975) [2007, Japanese Paper Sleeve]


Backing Vocals - Louise Goffin, Sherry Goffin
Bass - Charles Larkey
Drums - Andy Newmark
Engineer - Hank Cicalo, Milt Calice
Lyrics By - Maurice Sendak
Mastered By - Vic Anesini
Music By, Piano, Guitar, Synthesizer - Carole King
Producer - Lou Adler, Sheldon Riss
Remastered By - Bob Irwin


Carole King - Really Rosie (1975) [2007, Japanese Paper Sleeve]


Tracklist:

01. Really Rosie (01:51)
(Carole King / Maurice Sendak)
02. One Was Johnny (02:08)
(Carole King / Maurice Sendak)
03. Alligators All Around (01:54)
(Carole King / Maurice Sendak)
04. Pierre (05:38)
(Carole King / Maurice Sendak)
05. Screaming And Yelling (01:17)
(Carole King / Maurice Sendak)
06. The Ballad Of Chicken Soup (02:15)
(Carole King / Maurice Sendak)
07. Chicken Soup With Rice (04:20)
(Carole King / Maurice Sendak)
08. Avenue P (03:03)
(Carole King / Maurice Sendak)
09. My Simple Humble Neighborhood (03:08)
(Carole King / Maurice Sendak)
10. The Awful Truth (03:12)
(Carole King / Maurice Sendak)
11. Such Sufferin' (02:55)
(Carole King / Maurice Sendak)
12. Really Rosie (Reprise) (01:44)
(Carole King / Maurice Sendak)

Exact Audio Copy V1.0 beta 3 from 29. August 2011

EAC extraction logfile from 1. May 2015, 1:30

Carole King / Really Rosie

Used drive : HL-DT-STDVDRAM GH24NS90 Adapter: 1 ID: 0

Read mode : Secure
Utilize accurate stream : Yes
Defeat audio cache : No
Make use of C2 pointers : Yes

Read offset correction

: 6
Overread into Lead-In and Lead-Out : No
Fill up missing offset samples with silence : Yes
Delete leading and trailing silent blocks : No
Null samples used in CRC calculations : Yes
Used interface
: Native Win32 interface for Win NT & 2000
Gap handling
: Appended to previous track

Used output format : User Defined Encoder
Selected bitrate : 1024 kBit/s
Quality : High
Add ID3 tag : No
Command line compressor : C:\Program Files (x86)\FLAC\metaflac.exe
Additional command line options : -8

TOC of the extracted CD Track | Start | Length | Start sector | End sector
1 | 0:00.00 | 1:50.52 | 0 | 8301 2 | 1:50.52 | 2:08.18 | 8302 | 17919 3 | 3:58.70 | 1:54.10 | 17920 | 26479 4 | 5:53.05 | 5:38.35 | 26480 | 51864 5 | 11:31.40 | 1:17.12 | 51865 | 57651 6 | 12:48.52 | 2:15.20 | 57652 | 67796 7 | 15:03.72 | 4:20.28 | 67797 | 87324 8 | 19:24.25 | 3:03.10 | 87325 | 101059 9 | 22:27.35 | 3:07.65 | 101060 | 115149
10 | 25:35.25 | 3:12.02 | 115150 | 129551
11 | 28:47.27 | 2:55.00 | 129552 | 142676
12 | 31:42.27 | 1:43.60 | 142677 | 150461

Track 1 Filename C:\Exact Audio Copy\Carole King\Really Rosie\01 Really Rosie.wav Pre-gap length 0:00:02.00 Peak level 100.0 %
Extraction speed 3.4 X
Track quality 100.0 %
Test CRC 437FD700
Copy CRC 437FD700
Accurately ripped (confidence 2) [4A3A4869] (AR v1)
Copy OK

Track 2 Filename C:\Exact Audio Copy\Carole King\Really Rosie\02 One Was Johnny.wav Peak level 100.0 %
Extraction speed 3.6 X
Track quality 100.0 %
Test CRC 450CFBEF
Copy CRC 450CFBEF
Accurately ripped (confidence 2) [A301C5D0] (AR v1)
Copy OK

Track 3 Filename C:\Exact Audio Copy\Carole King\Really Rosie\03 Alligators All Around.wav Peak level 100.0 %
Extraction speed 4.1 X
Track quality 100.0 %
Test CRC 1D538673
Copy CRC 1D538673
Accurately ripped (confidence 2) [256F853B] (AR v1)
Copy OK

Track 4 Filename C:\Exact Audio Copy\Carole King\Really Rosie\04 Pierre.wav Peak level 100.0 %
Extraction speed 4.4 X
Track quality 100.0 %
Test CRC 74FB2052
Copy CRC 74FB2052
Accurately ripped (confidence 2) 9C92A64 (AR v1)
Copy OK

Track 5 Filename C:\Exact Audio Copy\Carole King\Really Rosie\05 Screaming And Yelling.wav Peak level 100.0 %
Extraction speed 4.7 X
Track quality 100.0 %
Test CRC 47031850
Copy CRC 47031850
Accurately ripped (confidence 2) [6CD406BF] (AR v1)
Copy OK

Track 6 Filename C:\Exact Audio Copy\Carole King\Really Rosie\06 The Ballad Of Chicken Soup.wav Peak level 100.0 %
Extraction speed 4.7 X
Track quality 100.0 %
Test CRC 1B32A848
Copy CRC 1B32A848
Accurately ripped (confidence 2) [D0C56397] (AR v1)
Copy OK

Track 7 Filename C:\Exact Audio Copy\Carole King\Really Rosie\07 Chicken Soup With Rice.wav Peak level 100.0 %
Extraction speed 5.0 X
Track quality 99.9 %
Test CRC BD8542FD
Copy CRC BD8542FD
Accurately ripped (confidence 2) [3A7DD225] (AR v1)
Copy OK

Track 8 Filename C:\Exact Audio Copy\Carole King\Really Rosie\08 Avenue P.wav Peak level 100.0 %
Extraction speed 5.2 X
Track quality 100.0 %
Test CRC C91C433A
Copy CRC C91C433A
Accurately ripped (confidence 2) [76FEE873] (AR v1)
Copy OK

Track 9 Filename C:\Exact Audio Copy\Carole King\Really Rosie\09 My Simple Humble Neighborhood.wav Peak level 100.0 %
Extraction speed 5.5 X
Track quality 100.0 %
Test CRC 1F65DFAF
Copy CRC 1F65DFAF
Accurately ripped (confidence 2) C29EB2B (AR v1)
Copy OK

Track 10 Filename C:\Exact Audio Copy\Carole King\Really Rosie\10 The Awful Truth.wav Peak level 95.5 %
Extraction speed 5.7 X
Track quality 100.0 %
Test CRC EABFD947
Copy CRC EABFD947
Accurately ripped (confidence 2) [2DA8D4D3] (AR v1)
Copy OK

Track 11 Filename C:\Exact Audio Copy\Carole King\Really Rosie\11 Such Sufferin'.wav Peak level 73.1 %
Extraction speed 6.2 X
Track quality 100.0 %
Test CRC 8C794F40
Copy CRC 8C794F40
Accurately ripped (confidence 2) [76FBA99F] (AR v1)
Copy OK

Track 12 Filename C:\Exact Audio Copy\Carole King\Really Rosie\12 Really Rosie (Reprise).wav Peak level 79.0 %
Extraction speed 5.8 X
Track quality 100.0 %
Test CRC 8CF4C2B6
Copy CRC 8CF4C2B6
Accurately ripped (confidence 2) [559587F4] (AR v1)
Copy OK

All tracks accurately ripped

No errors occurred

End of status report

==== Log checksum DCA9BF5C8CB5385B7BCA4A2B939F1B20E9F5F822DE8F1AB82A020A18A523C5B6 ====

foobar2000 1.3.7 / Dynamic Range Meter 1.1.1
log date: 2015-06-03 00:43:37

------
Analyzed: Carole King / Really Rosie
------

DR Peak RMS Duration Track
------
DR13 0.00 dB -16.93 dB 1:51 ?-01 Really Rosie
DR13 0.00 dB -14.87 dB 2:08 ?-02 One Was Johnny
DR13 0.00 dB -15.38 dB 1:54 ?-03 Alligators All Around
DR13 0.00 dB -14.74 dB 5:38 ?-04 Pierre
DR13 0.00 dB -14.49 dB 1:17 ?-05 Screaming And Yelling
DR13 0.00 dB -15.89 dB 2:15 ?-06 The Ballad Of Chicken Soup
DR14 0.00 dB -15.61 dB 4:20 ?-07 Chicken Soup With Rice
DR13 0.00 dB -16.10 dB 3:03 ?-08 Avenue P
DR15 0.00 dB -18.02 dB 3:08 ?-09 My Simple Humble Neighborhood
DR14 -0.40 dB -16.35 dB 3:12 ?-10 The Awful Truth
DR13 -2.71 dB -18.33 dB 2:55 ?-11 Such Sufferin'
DR12 -2.04 dB -21.37 dB 1:44 ?-12 Really Rosie (Reprise)
------

Number of tracks: 12
Official DR value: DR13

Samplerate: 44100 Hz
Channels: 2
Bits per sample: 16
Bitrate: 580 kbps
Codec: FLAC
DOWNLOAD LINKS
Buy Premium From My Links To Get Resumable Support & Max Speed & To Support Me


Links are Interchangeable - No Password - Single Extraction
Direct Download

Tags: Carole, Really, Japanese, Sleeve

Carole King - Really Rosie (1975) [2007, Japanese Paper Sleeve] Download via Hotfile Rapidshare Fileserve Megaupload & FileSonic, Carole King - Really Rosie (1975) [2007, Japanese Paper Sleeve] free torrent downloads included crack, serial, keygen.Carole King - Really Rosie (1975) [2007, Japanese Paper Sleeve] Fast Download via Rapidshare Hotfile Fileserve Filesonic Megaupload, Carole King - Really Rosie (1975) [2007, Japanese Paper Sleeve] Torrents and Emule Download or anything related.
Leave a Comment
Your Name:
E-Mail:
Add Comments:

Enter Code: