Halford - Resurrection (2000)

Download Now

Halford - Resurrection (2000)

Halford - Resurrection (2000)
EAC | Flac(Image) + Cue + Log & MP3 CBR 320Kbps
Metal-is Records, MISCD001 | ~ 382 or 115 Mb | Scans(400dpi, jpg) -> 131 Mb
Heavy Metal

"Former Judas Priest vocalist Rob Halford finally re-embraced his roots, formed a band simply called Halford, and recorded 2000's Resurrection, a tremendous album of pure heavy metal. His three early-'90s Fight releases were metallic, unlike 1998's disastrous Two album Voyeurs, which was executive produced by Trent Reznor. Add to the musical shift Halford's new makeup-heavy image and public admission of his homosexuality and longtime fans were surprised, to say the least..."


Tracklist:

01. Resurrection (3:58)
02. Made In Hell (4:12)
03. Locked And Loaded (3:19)
04. Night Fall (3:41)
05. Silent Screams (7:07)
06. The One You Love To Hate (3:12)
07. Cyberworld (3:09)
08. Slow Down (4:51)
09. Twist (4:09)
10. Temptation (3:32)
11. Drive (4:31)
12. Saviour (2:57)

Musicians:

* Rob Halford - Vocals [Vox]
* Patrick Lachman - Guitars
* Ray Riendeau - bass guitars
* Bobby Jarzombek - drums


Exact Audio Copy V1.0 beta 3 from 29. August 2011

EAC extraction logfile from 7. October 2014, 9:37

Halford / Resurrection

Used drive : ASUS DRW-24B3ST Adapter: 0 ID: 1

Read mode : Secure
Utilize accurate stream : Yes
Defeat audio cache : Yes
Make use of C2 pointers : No

Read offset correction

: 6
Overread into Lead-In and Lead-Out : No
Fill up missing offset samples with silence : Yes
Delete leading and trailing silent blocks : No
Null samples used in CRC calculations : Yes
Used interface
: Native Win32 interface for Win NT & 2000

Used output format : Internal WAV Routines
Sample format : 44.100 Hz; 16 Bit; Stereo

TOC of the extracted CD Track | Start | Length | Start sector | End sector
1 | 0:00.00 | 3:58.00 | 0 | 17849 2 | 3:58.00 | 4:12.05 | 17850 | 36754 3 | 8:10.05 | 3:18.70 | 36755 | 51674 4 | 11:29.00 | 3:41.02 | 51675 | 68251 5 | 15:10.02 | 7:06.45 | 68252 | 100246 6 | 22:16.47 | 3:11.40 | 100247 | 114611 7 | 25:28.12 | 3:08.63 | 114612 | 128774 8 | 28:37.00 | 4:51.12 | 128775 | 150611 9 | 33:28.12 | 4:08.70 | 150612 | 169281
10 | 37:37.07 | 3:32.08 | 169282 | 185189
11 | 41:09.15 | 4:30.40 | 185190 | 205479
12 | 45:39.55 | 2:57.27 | 205480 | 218781

Range status and errors

Selected range Filename D:\unclesandy\Halford - Resurrection (MISCD001).wav Peak level 100.0 %
Extraction speed 2.9 X
Range quality 100.0 %
Test CRC 36DF8323
Copy CRC 36DF8323
Copy OK

No errors occurred


AccurateRip summary

Track 1 accurately ripped (confidence 41) [8C352E94] (AR v2)
Track 2 accurately ripped (confidence 39) [97BC75C3] (AR v2)
Track 3 accurately ripped (confidence 40) [183F41A3] (AR v2)
Track 4 accurately ripped (confidence 40) [D5409440] (AR v2)
Track 5 accurately ripped (confidence 37) [7C51703A] (AR v2)
Track 6 accurately ripped (confidence 39) [FF087DF6] (AR v2)
Track 7 accurately ripped (confidence 39) [596985E5] (AR v2)
Track 8 accurately ripped (confidence 39) [351B3297] (AR v2)
Track 9 accurately ripped (confidence 39) [07DB0278] (AR v2)
Track 10 accurately ripped (confidence 37) [F12E7EB5] (AR v2)
Track 11 accurately ripped (confidence 37) [A1354562] (AR v2)
Track 12 accurately ripped (confidence 40) [AEB06E66] (AR v2)

All tracks accurately ripped

End of status report

---- CUETools DB Plugin V2.1.4

[CTDB TOCID: ON_PAjP7CXr.E2HPi9so7qH10G8-] found
Submit result: ON_PAjP7CXr.E2HPi9so7qH10G8- has been confirmed
Track | CTDB Status
1 | (52/54) Accurately ripped
2 | (52/54) Accurately ripped
3 | (52/54) Accurately ripped
4 | (52/54) Accurately ripped
5 | (51/54) Accurately ripped
6 | (51/54) Accurately ripped
7 | (52/54) Accurately ripped
8 | (52/54) Accurately ripped
9 | (52/54) Accurately ripped
10 | (51/54) Accurately ripped
11 | (51/54) Accurately ripped
12 | (52/54) Accurately ripped

==== Log checksum 49584C9E09F44A14B07AAD378D380ADBDC11D5767C3B723528EB25CFE583F40E ====

foobar2000 1.2.9 / Dynamic Range Meter 1.1.1
log date: 2015-06-04 06:05:15

------
Analyzed: Halford / Resurrection
------

DR Peak RMS Duration Track
------
DR6 0.00 dB -7.25 dB 3:58 01-Resurrection
DR6 0.00 dB -6.66 dB 4:12 02-Made In Hell
DR7 0.00 dB -7.58 dB 3:19 03-Locked And Loaded
DR6 0.00 dB -7.11 dB 3:41 04-Night Fall
DR7 0.00 dB -8.64 dB 7:07 05-Silent Screams
DR6 0.00 dB -6.26 dB 3:12 06-The One You Love To Hate
DR6 0.00 dB -6.42 dB 3:09 07-Cyberworld
DR6 0.00 dB -7.20 dB 4:51 08-Slow Down
DR6 0.00 dB -7.02 dB 4:09 09-Twist
DR7 0.00 dB -7.59 dB 3:32 10-Temptation
DR6 0.00 dB -7.21 dB 4:31 11-Drive
DR6 0.00 dB -6.79 dB 2:57 12-Saviour
------

Number of tracks: 12
Official DR value: DR6

Samplerate: 44100 Hz
Channels: 2
Bits per sample: 16
Bitrate: 1032 kbps
Codec: FLAC

[CUETools log; Date: 03.06.2015 10:49:00; Version: 2.1.4]
[CTDB TOCID: ON_PAjP7CXr.E2HPi9so7qH10G8-] found.
Track | CTDB Status
1 | (92/94) Accurately ripped
2 | (91/94) Accurately ripped
3 | (91/94) Accurately ripped
4 | (92/94) Accurately ripped
5 | (90/94) Accurately ripped
6 | (91/94) Accurately ripped
7 | (92/94) Accurately ripped
8 | (92/94) Accurately ripped
9 | (92/94) Accurately ripped
10 | (91/94) Accurately ripped
11 | (91/94) Accurately ripped
12 | (91/94) Accurately ripped
[AccurateRip ID: 00161658-00ce5924-8e0b650c] found.
Track [ CRC | V2 ] Status
01 [0117adab|8c352e94] (062+045/192) Accurately ripped
02 [2b5d3a5c|97bc75c3] (061+043/187) Accurately ripped
03 [ac8bd650|183f41a3] (062+044/190) Accurately ripped
04 [0d6b3edc|d5409440] (060+044/188) Accurately ripped
05 [476ce33a|7c51703a] (060+041/186) Accurately ripped
06 [3622f397|ff087df6] (061+043/188) Accurately ripped
07 f357590|596985e5 (061+043/187) Accurately ripped
08 [00d3e93a|351b3297] (060+043/185) Accurately ripped
09 [7dddf556|07db0278] (059+043/182) Accurately ripped
10 [8a28fe86|f12e7eb5] (059+041/180) Accurately ripped
11 [646787d4|a1354562] (059+041/180) Accurately ripped
12 [f1717aa0|aeb06e66] (059+043/183) Accurately ripped
Offsetted by -552:
01 [4f37f421] (002/192) Accurately ripped
02 [6167b49e] (002/187) Accurately ripped
03 [4f0fb2fc] (002/190) Accurately ripped
04 [5331768c] (002/188) Accurately ripped
05 [c19c291a] (002/186) Accurately ripped
06 [388388c3] (002/188) Accurately ripped
07 [22addcc0] (002/187) Accurately ripped
08 [6bb906aa] (002/185) Accurately ripped
09 [a957b894] (002/182) Accurately ripped
10 [00f49cf4] (002/180) Accurately ripped
11 [3835884a] (002/180) Accurately ripped
12 [5d4fb6be] (002/183) Accurately ripped
Offsetted by -107:
01 93650a4 (005/192) Accurately ripped
02 [e42c2dfe] (005/187) Accurately ripped
03 [0db99056] (005/190) Accurately ripped
04 [598d7e86] (005/188) Accurately ripped
05 [2820a627] (005/186) Accurately ripped
06 [e7288e88] (005/188) Accurately ripped
07 [a937004a] (005/187) Accurately ripped
08 [e19b38ac] (005/185) Accurately ripped
09 [956d25b1] (005/182) Accurately ripped
10 [9ee2e0c1] (005/180) Accurately ripped
11 [65c46921] (005/180) Accurately ripped
12 [412e6214] (005/183) Accurately ripped
Offsetted by 57:
01 [e87ae36f] (009/192) Accurately ripped
02 [d3398320] (008/187) Accurately ripped
03 [480a8941] (009/190) Accurately ripped
04 [984d09ce] (009/188) Accurately ripped
05 [6a612e22] (009/186) Accurately ripped
06 [d84f7471] (009/188) Accurately ripped
07 [e2d9b8d2] (009/187) Accurately ripped
08 [43b3e794] (009/185) Accurately ripped
09 [28bb9e97] (009/182) Accurately ripped
10 [78c4e0b2] (009/180) Accurately ripped
11 [850f2062] (009/180) Accurately ripped
12 8f9aa38 (009/183) Accurately ripped
Offsetted by 109:
01 [cf715073] (037/192) Accurately ripped
02 [9f80e1aa] (036/187) Accurately ripped
03 [a222224f] (036/190) Accurately ripped
04 8af3c36 (036/188) Accurately ripped
05 [235fa39a] (036/186) Accurately ripped
06 9f38a5d (036/188) Accurately ripped
07 [07db5d7a] (036/187) Accurately ripped
08 [3d57d41c] (035/185) Accurately ripped
09 [28389293] (034/182) Accurately ripped
10 [402d313f] (034/180) Accurately ripped
11 [57063d24] (034/180) Accurately ripped
12 [41a26219] (035/183) Accurately ripped
Offsetted by -669:
01 [f736c4e1] (000/192) No match (V2 was not tested)
02 [017879b5] (000/187) No match (V2 was not tested)
03 [6e277e6c] (000/190) No match (V2 was not tested)
04 [ca548522] (000/188) No match (V2 was not tested)
05 [dd56bdd2] (000/186) No match (V2 was not tested)
06 [c27b5541] (000/188) No match (V2 was not tested)
07 [0f6a2a46] (000/187) No match (V2 was not tested)
08 a083278 (000/185) No match (V2 was not tested)
09 [889ee9f7] (000/182) No match (V2 was not tested)
10 [78b243b3] (000/180) No match (V2 was not tested)
11 [08c191c8] (000/180) No match (V2 was not tested)
12 [456e45c7] (000/183) No match (V2 was not tested)
Offsetted by -664:
01 aa52049 (000/192) No match (V2 was not tested)
02 [78a2e0ad] (000/187) No match (V2 was not tested)
03 [95095995] (000/190) No match (V2 was not tested)
04 [34d41dac] (000/188) No match (V2 was not tested)
05 [ab413ea5] (000/186) No match (V2 was not tested)
06 [8366b9f8] (000/188) No match (V2 was not tested)
07 [0e0cc8e0] (000/187) No match
08 [0344444a] (000/185) No match (V2 was not tested)
09 [f9799416] (000/182) No match
10 [973ecfef] (000/180) No match
11 [dbf13cdd] (000/180) No match
12 [8e60c656] (000/183) No match
Offsetted by -583:
01 2d5f4c1 (000/192) No match (V2 was not tested)
02 [c444ad85] (002/187) Accurately ripped
03 14b40c2 (002/190) Accurately ripped
04 [5880c4ce] (002/188) Accurately ripped
05 [09ef90c9] (002/186) Accurately ripped
06 [201d1afe] (002/188) Accurately ripped
07 [918a6bd2] (002/187) Accurately ripped
08 [a5aafe94] (002/185) Accurately ripped
09 [aaa79b5b] (002/182) Accurately ripped
10 [cc174b80] (002/180) Accurately ripped
11 [467f48c1] (002/180) Accurately ripped
12 [5ef3c31f] (002/183) Accurately ripped
Offsetted by -550:
01 [92a7ff7d] (000/192) No match (V2 was not tested)
02 [24cde3a6] (000/187) No match (V2 was not tested)
03 [f604d2e2] (000/190) No match (V2 was not tested)
04 [4a97b390] (000/188) No match (V2 was not tested)
05 [f3752179] (000/186) No match (V2 was not tested)
06 [52e2b0c0] (000/188) No match (V2 was not tested)
07 [55554f64] (000/187) No match (V2 was not tested)
08 [890440fe] (000/185) No match (V2 was not tested)
09 [124d0030] (000/182) No match (V2 was not tested)
10 [4e1d6e39] (000/180) No match (V2 was not tested)
11 [35be2e67] (000/180) No match (V2 was not tested)
12 [e0ed8416] (000/183) No match (V2 was not tested)

Track Peak [ CRC32 ] [W/O NULL] [ LOG ]
-- 99,9 [36DF8323] [0465A82A] CRC32
01 99,9 [0B550F86] [CA1C3110]
02 99,9 [2180B728] [823BDD57]
03 99,9 [E818ED50] [76D7F5C9]
04 99,9 [8EC884D7] [7EAECA37]
05 99,9 [66265B98] [17B221DD]
06 99,9 [A714939C] [E7AA76A1]
07 99,9 [2942F330] [31D6CEEB]
08 99,9 [0614940D] [04F6B58F]
09 99,9 [018E4AB3] [5434711C]
10 99,9 [203D52B2] [6CF60816]
11 99,9 4D0D7AD [A76A1586]
12 99,9 [F6EE36A7] 2443D5F

Halford - Resurrection (2000)

All thanks go to unclesandy
DOWNLOAD LINKS
Buy Premium From My Links To Get Resumable Support & Max Speed & To Support Me


Links are Interchangeable - No Password - Single Extraction
Direct Download

Tags: Halford, Resurrection

Halford - Resurrection (2000) Download via Hotfile Rapidshare Fileserve Megaupload & FileSonic, Halford - Resurrection (2000) free torrent downloads included crack, serial, keygen.Halford - Resurrection (2000) Fast Download via Rapidshare Hotfile Fileserve Filesonic Megaupload, Halford - Resurrection (2000) Torrents and Emule Download or anything related.
Leave a Comment
Your Name:
E-Mail:
Add Comments:

Enter Code: