Kilauea feat. Daniel Ho ‎- Spring Break (1993)

Download Now

Kilauea feat. Daniel Ho ‎- Spring Break (1993)

Kilauea feat. Daniel Ho ‎- Spring Break (1993)
EAC Rip | FLAC (Tracks) +CUE, LOG | 401 MB | Covers Included
Jazz | Label: Brainchild Records | Catalog Number: BRN9310-2

"The coolly enticing Spring Break marks a true turning point. Aside from its tenacious listenability, the disc is anything but a Rippingtons ripoff. This is due to the band's maturing as a full fledge unit; Ho's sense of melody and arrangement, as well as his dazzling solo chops (mainly on acoustic piano, which carries many a heartwarming theme), guitarist Dave Murdy, and charismatic flutist and saxman Greg Vail. Vail's charisma complements Ho's tender playfulness on tracks like "Casual Elegance," and he has a splendid time joining Charley Davis' sassy trumpet on "Winner Take All." The contributions of Steve Reid and Steve Bailey may garner Kilauea a few more misplaced Ripps comparisons, but Ho and company have forged their own sweet sound. "

Exact Audio Copy V1.0 beta 3 from 29. August 2011

EAC extraction logfile from 3. June 2015, 22:49

Kilauea / Spring Break

Used drive : GENERIC CDRCB05 Adapter: 4 ID: 0

Read mode : Secure
Utilize accurate stream : Yes
Defeat audio cache : Yes
Make use of C2 pointers : No

Read offset correction

: 102
Overread into Lead-In and Lead-Out : No
Fill up missing offset samples with silence : Yes
Delete leading and trailing silent blocks : No
Null samples used in CRC calculations : Yes
Used interface
: Native Win32 interface for Win NT & 2000
Gap handling
: Appended to previous track

Used output format : User Defined Encoder
Selected bitrate : 1024 kBit/s
Quality : High
Add ID3 tag : No
Command line compressor : C:\Program Files\FLAC\flac.exe
Additional command line options : -8 -V -T "ARTIST=%artist%" -T "TITLE=%title%" -T "ALBUM=%albumtitle%" -T "DATE=%year%" -T "TRACKNUMBER=%tracknr%" -T "GENRE=%genre%" -T "PERFORMER=%albuminterpret%" -T "COMPOSER=%composer%" %haslyrics%--tag-from-file=LYRICS="%lyricsfile%"%haslyrics% -T "ALBUMARTIST=%albumartist%" -T "DISCNUMBER=%cdnumber%" -T "TOTALDISCS=%totalcds%" -T "TOTALTRACKS=%numtracks%" -T "COMMENT=%comment%" %source% -o %dest%

TOC of the extracted CD Track | Start | Length | Start sector | End sector
1 | 0:00.62 | 5:28.73 | 62 | 24734 2 | 5:29.60 | 5:43.02 | 24735 | 50461 3 | 11:12.62 | 4:49.48 | 50462 | 72184 4 | 16:02.35 | 3:56.22 | 72185 | 89906 5 | 19:58.57 | 5:43.33 | 89907 | 115664 6 | 25:42.15 | 4:08.45 | 115665 | 134309 7 | 29:50.60 | 5:18.50 | 134310 | 158209 8 | 35:09.35 | 3:54.60 | 158210 | 175819 9 | 39:04.20 | 4:30.45 | 175820 | 196114
10 | 43:34.65 | 2:34.07 | 196115 | 207671
11 | 46:08.72 | 6:23.55 | 207672 | 236451

Track 1 Filename F:\MUSIC\0\POSTS\Kilauea feat. Daniel Ho ‎- Spring Break (1993)\01 - Spring Break.wav Pre-gap length 0:00:02.62 Peak level 96.4 %
Extraction speed 2.3 X
Track quality 99.9 %
Test CRC 961A584E
Copy CRC 961A584E
Accurately ripped (confidence 3) [834FF76F] (AR v2)
Copy OK

Track 2 Filename F:\MUSIC\0\POSTS\Kilauea feat. Daniel Ho ‎- Spring Break (1993)\02 - Exotic Isle.wav Pre-gap length 0:00:00.05 Peak level 99.3 %
Extraction speed 2.9 X
Track quality 100.0 %
Test CRC 1A146B69
Copy CRC 1A146B69
Accurately ripped (confidence 3) 1DAE02A (AR v2)
Copy OK

Track 3 Filename F:\MUSIC\0\POSTS\Kilauea feat. Daniel Ho ‎- Spring Break (1993)\03 - Casual Elegance.wav Pre-gap length 0:00:00.02 Peak level 100.0 %
Extraction speed 3.1 X
Track quality 100.0 %
Test CRC 347EBB9F
Copy CRC 347EBB9F
Accurately ripped (confidence 3) [0D7D0C83] (AR v2)
Copy OK

Track 4 Filename F:\MUSIC\0\POSTS\Kilauea feat. Daniel Ho ‎- Spring Break (1993)\04 - One Love.wav Pre-gap length 0:00:00.42 Peak level 96.4 %
Extraction speed 3.3 X
Track quality 100.0 %
Test CRC F4F7B9DF
Copy CRC F4F7B9DF
Accurately ripped (confidence 3) [DD280622] (AR v2)
Copy OK

Track 5 Filename F:\MUSIC\0\POSTS\Kilauea feat. Daniel Ho ‎- Spring Break (1993)\05 - Celebration of Life.wav Pre-gap length 0:00:00.49 Peak level 99.8 %
Extraction speed 3.6 X
Track quality 100.0 %
Test CRC BB8C139B
Copy CRC BB8C139B
Accurately ripped (confidence 3) [86D7F202] (AR v2)
Copy OK

Track 6 Filename F:\MUSIC\0\POSTS\Kilauea feat. Daniel Ho ‎- Spring Break (1993)\06 - It's In Her Smile.wav Pre-gap length 0:00:01.15 Peak level 95.7 %
Extraction speed 3.7 X
Track quality 100.0 %
Test CRC 73224342
Copy CRC 73224342
Accurately ripped (confidence 3) 7B9AF7A (AR v2)
Copy OK

Track 7 Filename F:\MUSIC\0\POSTS\Kilauea feat. Daniel Ho ‎- Spring Break (1993)\07 - Muscle Beach.wav Pre-gap length 0:00:01.05 Peak level 100.0 %
Extraction speed 4.0 X
Track quality 100.0 %
Test CRC D1DF0A03
Copy CRC D1DF0A03
Accurately ripped (confidence 3) [4A646E7C] (AR v2)
Copy OK

Track 8 Filename F:\MUSIC\0\POSTS\Kilauea feat. Daniel Ho ‎- Spring Break (1993)\08 - If There Is You.wav Pre-gap length 0:00:00.40 Peak level 100.0 %
Extraction speed 3.9 X
Track quality 100.0 %
Test CRC D7CA9AFF
Copy CRC D7CA9AFF
Accurately ripped (confidence 3) [993F48E1] (AR v2)
Copy OK

Track 9 Filename F:\MUSIC\0\POSTS\Kilauea feat. Daniel Ho ‎- Spring Break (1993)\09 - Winner Take All.wav Pre-gap length 0:00:01.55 Peak level 100.0 %
Extraction speed 3.8 X
Track quality 99.9 %
Test CRC 89293FE1
Copy CRC 89293FE1
Accurately ripped (confidence 3) [A0D6A7E2] (AR v2)
Copy OK

Track 10 Filename F:\MUSIC\0\POSTS\Kilauea feat. Daniel Ho ‎- Spring Break (1993)\10 - A Winter's Tale.wav Pre-gap length 0:00:01.02 Peak level 82.9 %
Extraction speed 4.0 X
Track quality 100.0 %
Test CRC 2F6A22F8
Copy CRC 2F6A22F8
Accurately ripped (confidence 3) [F0BD9BBC] (AR v2)
Copy OK

Track 11 Filename F:\MUSIC\0\POSTS\Kilauea feat. Daniel Ho ‎- Spring Break (1993)\11 - Exotic Isle (Alternate Mix).wav Pre-gap length 0:00:00.52 Peak level 100.0 %
Extraction speed 4.8 X
Track quality 100.0 %
Test CRC 9337CC96
Copy CRC 9337CC96
Accurately ripped (confidence 3) [C5F7BECA] (AR v2)
Copy OK

All tracks accurately ripped

No errors occurred

End of status report

==== Log checksum 3E7BA459DB87C59B6E935EF9EBF6AB1F04BBE53FF2283325F16D294857AD0ADB ====

Tracklist:
01. Spring Break
02. Exotic Isle
03. Casual Elegance
04. One Love
05. Celebration of Love
06. It's in Her Smile
07. Muscle Beach
08. If There Is You
09. Winner Take All
10. A Winter's Tale
11. Exotic Isle - (alternate mix)
DOWNLOAD LINKS
Buy Premium From My Links To Get Resumable Support & Max Speed & To Support Me


Links are Interchangeable - No Password - Single Extraction
Direct Download

Tags: Kilauea, Daniel, Spring

Kilauea feat. Daniel Ho ‎- Spring Break (1993) Download via Hotfile Rapidshare Fileserve Megaupload & FileSonic, Kilauea feat. Daniel Ho ‎- Spring Break (1993) free torrent downloads included crack, serial, keygen.Kilauea feat. Daniel Ho ‎- Spring Break (1993) Fast Download via Rapidshare Hotfile Fileserve Filesonic Megaupload, Kilauea feat. Daniel Ho ‎- Spring Break (1993) Torrents and Emule Download or anything related.
Leave a Comment
Your Name:
E-Mail:
Add Comments:

Enter Code: