Ray Conniff - Two Classic Albums - It's The Talk Of The Town / Young At Heart (2 LP in 1 CD , 1998 ) Re Up

Download Now

Ray Conniff - Two Classic Albums - It's The Talk Of The Town / Young At Heart (2 LP in 1 CD , 1998 ) Re Up

Two Classic Albums From The Ray Conniff Singers
It´s The Talk Of The Town - Young At Heart (2 LP in 1 CD, 1998)

EAC Rip | FLAC-TRACKS+CUE+LOG | 1CD | Scans | 67 Min. | 387 MB
Label : Sony Music Columbia / Catalogue 4930462 /
Easy Listening Pop / LP´s Originally Released in 1959-60

"I really just wanted to buy It's the Talk of the Town as a single download but could not find the song anywhere except as part of a CD. The CD actually had 2 albums in it - It's the Talk of the Town and Young at Heart. Ray Conniff music is one of those old time groups that had a distinctive sound."

Ray Conniff - Two Classic Albums - It's The Talk Of The Town / Young At Heart (2 LP in 1 CD , 1998 ) Re Up

Ray Conniff - Two Classic Albums - It's The Talk Of The Town / Young At Heart (2 LP in 1 CD , 1998 ) Re Up

Ray Conniff - Two Classic Albums - It's The Talk Of The Town / Young At Heart (2 LP in 1 CD , 1998 ) Re Up

Ray Conniff - Two Classic Albums - It's The Talk Of The Town / Young At Heart (2 LP in 1 CD , 1998 ) Re Up

Young at Heart is an excellent CD. The stereo sound is amazing. I purchased it because I liked the vinyl record so well. Dancing with Tears in my Eyes and It's Dark on Observatory Hill are two of my favorite songs.
The other album, "It's the Talk of the Town" is almost as good with a wonderful rendition of My Heart Cries for You. Young At Heart is the best album Ray Conniff ever put out and I had most of them.

Track Listings :

1. It's The Talk Of The Town
2. You're An Old Smoothie
3. Buttons & Bows
4. Let's Put Out The Lights
5. It's Been A Long, Long Ti
6. Zip-A-Dee-Doo-Dah
7. Deep In The Heart Of Texa
8. Love Is The Sweetest Thin
9. They Say It's Wonderful
10. Hands Across The Table
11. My Heart Cries For You
12. Rosalie
13. Remember
14. You'll Never Know
15. Dancing With Tears In My
16. I'm In The Mood For Love
17. I'll Be Seeing You
18. It's Dark On Observatory
19. These Foolish Things (Rem
20. Ma, He's Making Eyes At M
21. Young At Heart
22. If I Loved You
23. Harbour Lights
24. I'll See You In My Dreams

Exact Audio Copy V1.0 beta 3 from 29. August 2011

EAC extraction logfile from 4. June 2015, 9:06

The Ray Conniff Singers / It's The Talk Of The Town / Young At Heart

Used drive : SONY DVD RW DRU-840A Adapter: 0 ID: 1

Read mode : Secure
Utilize accurate stream : Yes
Defeat audio cache : Yes
Make use of C2 pointers : No

Read offset correction

: 6
Overread into Lead-In and Lead-Out : No
Fill up missing offset samples with silence : Yes
Delete leading and trailing silent blocks : No
Null samples used in CRC calculations : Yes
Used interface
: Native Win32 interface for Win NT & 2000
Gap handling
: Not detected, thus appended to previous track

Used output format : User Defined Encoder
Selected bitrate : 320 kBit/s
Quality : High
Add ID3 tag : No
Command line compressor : C:\Archivos de programa\Exact Audio Copy\FLAC\FLAC.EXE
Additional command line options : -6 -V -T "ARTIST=%artist%" -T "TITLE=%title%" -T "ALBUM=%albumtitle%" -T "DATE=%year%" -T "TRACKNUMBER=%tracknr%" -T "GENRE=%genre%" -T "COMMENT=%comment%" -T "BAND=%albuminterpret%" -T "ALBUMARTIST=%albuminterpret%" -T "COMPOSER=%composer%" %haslyrics%--tag-from-file=LYRICS="%lyricsfile%"%haslyrics% -T "DISCNUMBER=%cdnumber%" -T "TOTALDISCS=%totalcds%" -T "TOTALTRACKS=%numtracks%" %hascover%--picture="%coverfile%"%hascover% %source% -o %dest%

TOC of the extracted CD Track | Start | Length | Start sector | End sector
1 | 0:00.00 | 2:43.30 | 0 | 12254 2 | 2:43.30 | 2:26.22 | 12255 | 23226 3 | 5:09.52 | 2:17.50 | 23227 | 33551 4 | 7:27.27 | 2:13.45 | 33552 | 43571 5 | 9:40.72 | 2:12.33 | 43572 | 53504 6 | 11:53.30 | 2:08.40 | 53505 | 63144 7 | 14:01.70 | 2:18.37 | 63145 | 73531 8 | 16:20.32 | 2:42.08 | 73532 | 85689 9 | 19:02.40 | 2:30.02 | 85690 | 96941
10 | 21:32.42 | 2:15.35 | 96942 | 107101
11 | 23:48.02 | 2:30.10 | 107102 | 118361
12 | 26:18.12 | 1:54.05 | 118362 | 126916
13 | 28:12.17 | 2:20.23 | 126917 | 137439
14 | 30:32.40 | 3:25.02 | 137440 | 152816
15 | 33:57.42 | 2:18.60 | 152817 | 163226
16 | 36:16.27 | 2:28.58 | 163227 | 174384
17 | 38:45.10 | 2:56.62 | 174385 | 187646
18 | 41:41.72 | 2:37.58 | 187647 | 199479
19 | 44:19.55 | 2:26.12 | 199480 | 210441
20 | 46:45.67 | 2:12.53 | 210442 | 220394
21 | 48:58.45 | 2:26.52 | 220395 | 231396
22 | 51:25.22 | 2:38.45 | 231397 | 243291
23 | 54:03.67 | 2:34.50 | 243292 | 254891
24 | 56:38.42 | 2:14.70 | 254892 | 265011

Track 1 Filename E:\MUSIC\My Music\Re subir\Ray Conniff\Ray Conniff Two Classic Albums - It´s The Talk Of The Town - Young At Heart\CD\01 It's The Talk Of The Town.wav Peak level 90.6 %
Extraction speed 1.8 X
Track quality 100.0 %
Test CRC 5BF2752A
Copy CRC 5BF2752A
Cannot be verified as accurate (confidence 2) [6641D600], AccurateRip returned [D7F03A8B] (AR v2)
Copy OK

Track 2 Filename E:\MUSIC\My Music\Re subir\Ray Conniff\Ray Conniff Two Classic Albums - It´s The Talk Of The Town - Young At Heart\CD\02 You're An Old Smoothie.wav Peak level 94.4 %
Extraction speed 1.9 X
Track quality 100.0 %
Test CRC 95698D22
Copy CRC 95698D22
Cannot be verified as accurate (confidence 2) [74C770FF], AccurateRip returned [99449E12] (AR v2)
Copy OK

Track 3 Filename E:\MUSIC\My Music\Re subir\Ray Conniff\Ray Conniff Two Classic Albums - It´s The Talk Of The Town - Young At Heart\CD\03 Buttons And Bows.wav Peak level 87.3 %
Extraction speed 1.9 X
Track quality 100.0 %
Test CRC A564CFD6
Copy CRC A564CFD6
Cannot be verified as accurate (confidence 2) [9C8DAAE8], AccurateRip returned [607AA49F] (AR v2)
Copy OK

Track 4 Filename E:\MUSIC\My Music\Re subir\Ray Conniff\Ray Conniff Two Classic Albums - It´s The Talk Of The Town - Young At Heart\CD\04 Let's Put Out The Lights.wav Peak level 93.4 %
Extraction speed 2.0 X
Track quality 100.0 %
Test CRC 1BBC2686
Copy CRC 1BBC2686
Cannot be verified as accurate (confidence 2) [D973CFC0], AccurateRip returned [452AC60F] (AR v2)
Copy OK

Track 5 Filename E:\MUSIC\My Music\Re subir\Ray Conniff\Ray Conniff Two Classic Albums - It´s The Talk Of The Town - Young At Heart\CD\05 It's Been A Long, Long Time.wav Peak level 78.3 %
Extraction speed 1.6 X
Track quality 99.9 %
Test CRC E6FA1CC7
Copy CRC E6FA1CC7
Cannot be verified as accurate (confidence 2) [0CA9EB38], AccurateRip returned [42EB5BD6] (AR v2)
Copy OK

Track 6 Filename E:\MUSIC\My Music\Re subir\Ray Conniff\Ray Conniff Two Classic Albums - It´s The Talk Of The Town - Young At Heart\CD\06 Zip-A-Dee-Doo-Dah.wav Peak level 91.7 %
Extraction speed 2.1 X
Track quality 100.0 %
Test CRC 1F707E6F
Copy CRC 1F707E6F
Cannot be verified as accurate (confidence 2) [36EF0484], AccurateRip returned [14C30D8C] (AR v2)
Copy OK

Track 7 Filename E:\MUSIC\My Music\Re subir\Ray Conniff\Ray Conniff Two Classic Albums - It´s The Talk Of The Town - Young At Heart\CD\07 Deep In The Heart Of Texas.wav Peak level 91.9 %
Extraction speed 2.2 X
Track quality 100.0 %
Test CRC 80F3623C
Copy CRC 80F3623C
Cannot be verified as accurate (confidence 2) [44CAACCA], AccurateRip returned [C170853C] (AR v2)
Copy OK

Track 8 Filename E:\MUSIC\My Music\Re subir\Ray Conniff\Ray Conniff Two Classic Albums - It´s The Talk Of The Town - Young At Heart\CD\08 Love Is The Sweetest Thing.wav Peak level 85.7 %
Extraction speed 2.4 X
Track quality 100.0 %
Test CRC 5241289D
Copy CRC 5241289D
Cannot be verified as accurate (confidence 2) [FFDCEBB6], AccurateRip returned [8FBB017B] (AR v2)
Copy OK

Track 9 Filename E:\MUSIC\My Music\Re subir\Ray Conniff\Ray Conniff Two Classic Albums - It´s The Talk Of The Town - Young At Heart\CD\09 They Say It's Wonderful.wav Peak level 85.1 %
Extraction speed 1.8 X
Track quality 99.9 %
Test CRC CF7CC3EE
Copy CRC CF7CC3EE
Cannot be verified as accurate (confidence 2) [219C47E3], AccurateRip returned [ACFBBD57] (AR v2)
Copy OK

Track 10 Filename E:\MUSIC\My Music\Re subir\Ray Conniff\Ray Conniff Two Classic Albums - It´s The Talk Of The Town - Young At Heart\CD\10 Hands Across The Table.wav Peak level 87.9 %
Extraction speed 1.8 X
Track quality 99.9 %
Test CRC F0301660
Copy CRC F0301660
Cannot be verified as accurate (confidence 2) [AB9E7B05], AccurateRip returned [C667ECAC] (AR v2)
Copy OK

Track 11 Filename E:\MUSIC\My Music\Re subir\Ray Conniff\Ray Conniff Two Classic Albums - It´s The Talk Of The Town - Young At Heart\CD\11 My Heart Cries For You.wav Peak level 87.8 %
Extraction speed 2.6 X
Track quality 100.0 %
Test CRC 72CFFE53
Copy CRC 72CFFE53
Cannot be verified as accurate (confidence 2) [35FB6106], AccurateRip returned [90787FEA] (AR v2)
Copy OK

Track 12 Filename E:\MUSIC\My Music\Re subir\Ray Conniff\Ray Conniff Two Classic Albums - It´s The Talk Of The Town - Young At Heart\CD\12 Rosalie.wav Peak level 89.3 %
Extraction speed 2.5 X
Track quality 100.0 %
Test CRC 8B4971D0
Copy CRC 8B4971D0
Cannot be verified as accurate (confidence 2) [94FA43B8], AccurateRip returned [5554D0E1] (AR v2)
Copy OK

Track 13 Filename E:\MUSIC\My Music\Re subir\Ray Conniff\Ray Conniff Two Classic Albums - It´s The Talk Of The Town - Young At Heart\CD\13 Remember.wav Peak level 94.4 %
Extraction speed 2.6 X
Track quality 100.0 %
Test CRC 1F5C062D
Copy CRC 1F5C062D
Cannot be verified as accurate (confidence 2) [040644A5], AccurateRip returned [AE72F878] (AR v2)
Copy OK

Track 14 Filename E:\MUSIC\My Music\Re subir\Ray Conniff\Ray Conniff Two Classic Albums - It´s The Talk Of The Town - Young At Heart\CD\14 You'll Never Know.wav Peak level 94.4 %
Extraction speed 2.9 X
Track quality 100.0 %
Test CRC F9B7BA9D
Copy CRC F9B7BA9D
Cannot be verified as accurate (confidence 2) [CE959CAE], AccurateRip returned [869AA87A] (AR v2)
Copy OK

Track 15 Filename E:\MUSIC\My Music\Re subir\Ray Conniff\Ray Conniff Two Classic Albums - It´s The Talk Of The Town - Young At Heart\CD\15 Dancing With Tears In My Eyes.wav Peak level 92.8 %
Extraction speed 1.9 X
Track quality 99.9 %
Test CRC 720ED1A0
Copy CRC 720ED1A0
Cannot be verified as accurate (confidence 2) [006BF220], AccurateRip returned [363A579B] (AR v2)
Copy OK

Track 16 Filename E:\MUSIC\My Music\Re subir\Ray Conniff\Ray Conniff Two Classic Albums - It´s The Talk Of The Town - Young At Heart\CD\16 I'm In The Mood For Love.wav Peak level 94.4 %
Extraction speed 2.9 X
Track quality 100.0 %
Test CRC F62FA2F1
Copy CRC F62FA2F1
Cannot be verified as accurate (confidence 2) [CFB6B7C8], AccurateRip returned [296D6611] (AR v2)
Copy OK

Track 17 Filename E:\MUSIC\My Music\Re subir\Ray Conniff\Ray Conniff Two Classic Albums - It´s The Talk Of The Town - Young At Heart\CD\17 I'll Be Seeing You.wav Peak level 90.5 %
Extraction speed 3.1 X
Track quality 100.0 %
Test CRC F5E44A70
Copy CRC F5E44A70
Cannot be verified as accurate (confidence 2) [5C1E9315], AccurateRip returned [0D80FBB7] (AR v2)
Copy OK

Track 18 Filename E:\MUSIC\My Music\Re subir\Ray Conniff\Ray Conniff Two Classic Albums - It´s The Talk Of The Town - Young At Heart\CD\18 It's Dark On Observatory Hill.wav Peak level 86.7 %
Extraction speed 3.1 X
Track quality 100.0 %
Test CRC 187D47A2
Copy CRC 187D47A2
Cannot be verified as accurate (confidence 2) [9B6B8549], AccurateRip returned [2FA5D418] (AR v2)
Copy OK

Track 19 Filename E:\MUSIC\My Music\Re subir\Ray Conniff\Ray Conniff Two Classic Albums - It´s The Talk Of The Town - Young At Heart\CD\19 These Foolish Things Remind Me Of You.wav Peak level 90.1 %
Extraction speed 3.1 X
Track quality 100.0 %
Test CRC D606BFFE
Copy CRC D606BFFE
Cannot be verified as accurate (confidence 2) [43FD262B], AccurateRip returned [53F89596] (AR v2)
Copy OK

Track 20 Filename E:\MUSIC\My Music\Re subir\Ray Conniff\Ray Conniff Two Classic Albums - It´s The Talk Of The Town - Young At Heart\CD\20 Ma, He's Making Eyes At Me.wav Peak level 94.4 %
Extraction speed 3.0 X
Track quality 100.0 %
Test CRC CA6C0DE8
Copy CRC CA6C0DE8
Cannot be verified as accurate (confidence 2) [1536BE85], AccurateRip returned [33549C1C] (AR v2)
Copy OK

Track 21 Filename E:\MUSIC\My Music\Re subir\Ray Conniff\Ray Conniff Two Classic Albums - It´s The Talk Of The Town - Young At Heart\CD\21 Young At Heart.wav Peak level 92.9 %
Extraction speed 2.1 X
Track quality 99.9 %
Test CRC E3333131
Copy CRC E3333131
Cannot be verified as accurate (confidence 2) [D1B9CE29], AccurateRip returned [1D47B460] (AR v2)
Copy OK

Track 22 Filename E:\MUSIC\My Music\Re subir\Ray Conniff\Ray Conniff Two Classic Albums - It´s The Talk Of The Town - Young At Heart\CD\22 If I Loved You.wav Peak level 84.2 %
Extraction speed 3.3 X
Track quality 100.0 %
Test CRC 63C4D90E
Copy CRC 63C4D90E
Cannot be verified as accurate (confidence 2) [4F16D59B], AccurateRip returned [8B732B70] (AR v2)
Copy OK

Track 23 Filename E:\MUSIC\My Music\Re subir\Ray Conniff\Ray Conniff Two Classic Albums - It´s The Talk Of The Town - Young At Heart\CD\23 Harbor Lights.wav Peak level 83.4 %
Extraction speed 2.2 X
Track quality 99.9 %
Test CRC 4F157AE0
Copy CRC 4F157AE0
Cannot be verified as accurate (confidence 2) [6DD24C83], AccurateRip returned [E15266C0] (AR v2)
Copy OK

Track 24 Filename E:\MUSIC\My Music\Re subir\Ray Conniff\Ray Conniff Two Classic Albums - It´s The Talk Of The Town - Young At Heart\CD\24 I'll See You In My Dreams.wav Peak level 86.3 %
Extraction speed 3.3 X
Track quality 100.0 %
Test CRC EBDBD638
Copy CRC EBDBD638
Cannot be verified as accurate (confidence 2) [6053B06E], AccurateRip returned [7AB99752] (AR v2)
Copy OK

No tracks could be verified as accurate
You may have a different pressing from the one(s) in the database

No errors occurred

End of status report

==== Log checksum A5581A9F2170C6372F5C787F985644772B95E31A17283C9CD7025609014D0461 ====

--

Exact Audio Copy V1.0 beta 3 from 29. August 2011

EAC extraction logfile from 4. June 2015, 9:06

The Ray Conniff Singers / It's The Talk Of The Town / Young At Heart

Used drive : SONY DVD RW DRU-840A Adapter: 0 ID: 1

Read mode : Secure
Utilize accurate stream : Yes
Defeat audio cache : Yes
Make use of C2 pointers : No

Read offset correction

: 6
Overread into Lead-In and Lead-Out : No
Fill up missing offset samples with silence : Yes
Delete leading and trailing silent blocks : No
Null samples used in CRC calculations : Yes
Used interface
: Native Win32 interface for Win NT & 2000
Gap handling
: Not detected, thus appended to previous track

Used output format : User Defined Encoder
Selected bitrate : 320 kBit/s
Quality : High
Add ID3 tag : No
Command line compressor : C:\Archivos de programa\Exact Audio Copy\FLAC\FLAC.EXE
Additional command line options : -6 -V -T "ARTIST=%artist%" -T "TITLE=%title%" -T "ALBUM=%albumtitle%" -T "DATE=%year%" -T "TRACKNUMBER=%tracknr%" -T "GENRE=%genre%" -T "COMMENT=%comment%" -T "BAND=%albuminterpret%" -T "ALBUMARTIST=%albuminterpret%" -T "COMPOSER=%composer%" %haslyrics%--tag-from-file=LYRICS="%lyricsfile%"%haslyrics% -T "DISCNUMBER=%cdnumber%" -T "TOTALDISCS=%totalcds%" -T "TOTALTRACKS=%numtracks%" %hascover%--picture="%coverfile%"%hascover% %source% -o %dest%

TOC of the extracted CD Track | Start | Length | Start sector | End sector
1 | 0:00.00 | 2:43.30 | 0 | 12254 2 | 2:43.30 | 2:26.22 | 12255 | 23226 3 | 5:09.52 | 2:17.50 | 23227 | 33551 4 | 7:27.27 | 2:13.45 | 33552 | 43571 5 | 9:40.72 | 2:12.33 | 43572 | 53504 6 | 11:53.30 | 2:08.40 | 53505 | 63144 7 | 14:01.70 | 2:18.37 | 63145 | 73531 8 | 16:20.32 | 2:42.08 | 73532 | 85689 9 | 19:02.40 | 2:30.02 | 85690 | 96941
10 | 21:32.42 | 2:15.35 | 96942 | 107101
11 | 23:48.02 | 2:30.10 | 107102 | 118361
12 | 26:18.12 | 1:54.05 | 118362 | 126916
13 | 28:12.17 | 2:20.23 | 126917 | 137439
14 | 30:32.40 | 3:25.02 | 137440 | 152816
15 | 33:57.42 | 2:18.60 | 152817 | 163226
16 | 36:16.27 | 2:28.58 | 163227 | 174384
17 | 38:45.10 | 2:56.62 | 174385 | 187646
18 | 41:41.72 | 2:37.58 | 187647 | 199479
19 | 44:19.55 | 2:26.12 | 199480 | 210441
20 | 46:45.67 | 2:12.53 | 210442 | 220394
21 | 48:58.45 | 2:26.52 | 220395 | 231396
22 | 51:25.22 | 2:38.45 | 231397 | 243291
23 | 54:03.67 | 2:34.50 | 243292 | 254891
24 | 56:38.42 | 2:14.70 | 254892 | 265011

Track 1 Filename E:\MUSIC\My Music\Re subir\Ray Conniff\Ray Conniff Two Classic Albums - It´s The Talk Of The Town - Young At Heart\CD\01 It's The Talk Of The Town.wav Peak level 90.6 %
Extraction speed 1.8 X
Track quality 100.0 %
Test CRC 5BF2752A
Copy CRC 5BF2752A
Cannot be verified as accurate (confidence 2) [6641D600], AccurateRip returned [D7F03A8B] (AR v2)
Copy OK

Track 2 Filename E:\MUSIC\My Music\Re subir\Ray Conniff\Ray Conniff Two Classic Albums - It´s The Talk Of The Town - Young At Heart\CD\02 You're An Old Smoothie.wav Peak level 94.4 %
Extraction speed 1.9 X
Track quality 100.0 %
Test CRC 95698D22
Copy CRC 95698D22
Cannot be verified as accurate (confidence 2) [74C770FF], AccurateRip returned [99449E12] (AR v2)
Copy OK

Track 3 Filename E:\MUSIC\My Music\Re subir\Ray Conniff\Ray Conniff Two Classic Albums - It´s The Talk Of The Town - Young At Heart\CD\03 Buttons And Bows.wav Peak level 87.3 %
Extraction speed 1.9 X
Track quality 100.0 %
Test CRC A564CFD6
Copy CRC A564CFD6
Cannot be verified as accurate (confidence 2) [9C8DAAE8], AccurateRip returned [607AA49F] (AR v2)
Copy OK

Track 4 Filename E:\MUSIC\My Music\Re subir\Ray Conniff\Ray Conniff Two Classic Albums - It´s The Talk Of The Town - Young At Heart\CD\04 Let's Put Out The Lights.wav Peak level 93.4 %
Extraction speed 2.0 X
Track quality 100.0 %
Test CRC 1BBC2686
Copy CRC 1BBC2686
Cannot be verified as accurate (confidence 2) [D973CFC0], AccurateRip returned [452AC60F] (AR v2)
Copy OK

Track 5 Filename E:\MUSIC\My Music\Re subir\Ray Conniff\Ray Conniff Two Classic Albums - It´s The Talk Of The Town - Young At Heart\CD\05 It's Been A Long, Long Time.wav Peak level 78.3 %
Extraction speed 1.6 X
Track quality 99.9 %
Test CRC E6FA1CC7
Copy CRC E6FA1CC7
Cannot be verified as accurate (confidence 2) [0CA9EB38], AccurateRip returned [42EB5BD6] (AR v2)
Copy OK

Track 6 Filename E:\MUSIC\My Music\Re subir\Ray Conniff\Ray Conniff Two Classic Albums - It´s The Talk Of The Town - Young At Heart\CD\06 Zip-A-Dee-Doo-Dah.wav Peak level 91.7 %
Extraction speed 2.1 X
Track quality 100.0 %
Test CRC 1F707E6F
Copy CRC 1F707E6F
Cannot be verified as accurate (confidence 2) [36EF0484], AccurateRip returned [14C30D8C] (AR v2)
Copy OK

Track 7 Filename E:\MUSIC\My Music\Re subir\Ray Conniff\Ray Conniff Two Classic Albums - It´s The Talk Of The Town - Young At Heart\CD\07 Deep In The Heart Of Texas.wav Peak level 91.9 %
Extraction speed 2.2 X
Track quality 100.0 %
Test CRC 80F3623C
Copy CRC 80F3623C
Cannot be verified as accurate (confidence 2) [44CAACCA], AccurateRip returned [C170853C] (AR v2)
Copy OK

Track 8 Filename E:\MUSIC\My Music\Re subir\Ray Conniff\Ray Conniff Two Classic Albums - It´s The Talk Of The Town - Young At Heart\CD\08 Love Is The Sweetest Thing.wav Peak level 85.7 %
Extraction speed 2.4 X
Track quality 100.0 %
Test CRC 5241289D
Copy CRC 5241289D
Cannot be verified as accurate (confidence 2) [FFDCEBB6], AccurateRip returned [8FBB017B] (AR v2)
Copy OK

Track 9 Filename E:\MUSIC\My Music\Re subir\Ray Conniff\Ray Conniff Two Classic Albums - It´s The Talk Of The Town - Young At Heart\CD\09 They Say It's Wonderful.wav Peak level 85.1 %
Extraction speed 1.8 X
Track quality 99.9 %
Test CRC CF7CC3EE
Copy CRC CF7CC3EE
Cannot be verified as accurate (confidence 2) [219C47E3], AccurateRip returned [ACFBBD57] (AR v2)
Copy OK

Track 10 Filename E:\MUSIC\My Music\Re subir\Ray Conniff\Ray Conniff Two Classic Albums - It´s The Talk Of The Town - Young At Heart\CD\10 Hands Across The Table.wav Peak level 87.9 %
Extraction speed 1.8 X
Track quality 99.9 %
Test CRC F0301660
Copy CRC F0301660
Cannot be verified as accurate (confidence 2) [AB9E7B05], AccurateRip returned [C667ECAC] (AR v2)
Copy OK

Track 11 Filename E:\MUSIC\My Music\Re subir\Ray Conniff\Ray Conniff Two Classic Albums - It´s The Talk Of The Town - Young At Heart\CD\11 My Heart Cries For You.wav Peak level 87.8 %
Extraction speed 2.6 X
Track quality 100.0 %
Test CRC 72CFFE53
Copy CRC 72CFFE53
Cannot be verified as accurate (confidence 2) [35FB6106], AccurateRip returned [90787FEA] (AR v2)
Copy OK

Track 12 Filename E:\MUSIC\My Music\Re subir\Ray Conniff\Ray Conniff Two Classic Albums - It´s The Talk Of The Town - Young At Heart\CD\12 Rosalie.wav Peak level 89.3 %
Extraction speed 2.5 X
Track quality 100.0 %
Test CRC 8B4971D0
Copy CRC 8B4971D0
Cannot be verified as accurate (confidence 2) [94FA43B8], AccurateRip returned [5554D0E1] (AR v2)
Copy OK

Track 13 Filename E:\MUSIC\My Music\Re subir\Ray Conniff\Ray Conniff Two Classic Albums - It´s The Talk Of The Town - Young At Heart\CD\13 Remember.wav Peak level 94.4 %
Extraction speed 2.6 X
Track quality 100.0 %
Test CRC 1F5C062D
Copy CRC 1F5C062D
Cannot be verified as accurate (confidence 2) [040644A5], AccurateRip returned [AE72F878] (AR v2)
Copy OK

Track 14 Filename E:\MUSIC\My Music\Re subir\Ray Conniff\Ray Conniff Two Classic Albums - It´s The Talk Of The Town - Young At Heart\CD\14 You'll Never Know.wav Peak level 94.4 %
Extraction speed 2.9 X
Track quality 100.0 %
Test CRC F9B7BA9D
Copy CRC F9B7BA9D
Cannot be verified as accurate (confidence 2) [CE959CAE], AccurateRip returned [869AA87A] (AR v2)
Copy OK

Track 15 Filename E:\MUSIC\My Music\Re subir\Ray Conniff\Ray Conniff Two Classic Albums - It´s The Talk Of The Town - Young At Heart\CD\15 Dancing With Tears In My Eyes.wav Peak level 92.8 %
Extraction speed 1.9 X
Track quality 99.9 %
Test CRC 720ED1A0
Copy CRC 720ED1A0
Cannot be verified as accurate (confidence 2) [006BF220], AccurateRip returned [363A579B] (AR v2)
Copy OK

Track 16 Filename E:\MUSIC\My Music\Re subir\Ray Conniff\Ray Conniff Two Classic Albums - It´s The Talk Of The Town - Young At Heart\CD\16 I'm In The Mood For Love.wav Peak level 94.4 %
Extraction speed 2.9 X
Track quality 100.0 %
Test CRC F62FA2F1
Copy CRC F62FA2F1
Cannot be verified as accurate (confidence 2) [CFB6B7C8], AccurateRip returned [296D6611] (AR v2)
Copy OK

Track 17 Filename E:\MUSIC\My Music\Re subir\Ray Conniff\Ray Conniff Two Classic Albums - It´s The Talk Of The Town - Young At Heart\CD\17 I'll Be Seeing You.wav Peak level 90.5 %
Extraction speed 3.1 X
Track quality 100.0 %
Test CRC F5E44A70
Copy CRC F5E44A70
Cannot be verified as accurate (confidence 2) [5C1E9315], AccurateRip returned [0D80FBB7] (AR v2)
Copy OK

Track 18 Filename E:\MUSIC\My Music\Re subir\Ray Conniff\Ray Conniff Two Classic Albums - It´s The Talk Of The Town - Young At Heart\CD\18 It's Dark On Observatory Hill.wav Peak level 86.7 %
Extraction speed 3.1 X
Track quality 100.0 %
Test CRC 187D47A2
Copy CRC 187D47A2
Cannot be verified as accurate (confidence 2) [9B6B8549], AccurateRip returned [2FA5D418] (AR v2)
Copy OK

Track 19 Filename E:\MUSIC\My Music\Re subir\Ray Conniff\Ray Conniff Two Classic Albums - It´s The Talk Of The Town - Young At Heart\CD\19 These Foolish Things Remind Me Of You.wav Peak level 90.1 %
Extraction speed 3.1 X
Track quality 100.0 %
Test CRC D606BFFE
Copy CRC D606BFFE
Cannot be verified as accurate (confidence 2) [43FD262B], AccurateRip returned [53F89596] (AR v2)
Copy OK

Track 20 Filename E:\MUSIC\My Music\Re subir\Ray Conniff\Ray Conniff Two Classic Albums - It´s The Talk Of The Town - Young At Heart\CD\20 Ma, He's Making Eyes At Me.wav Peak level 94.4 %
Extraction speed 3.0 X
Track quality 100.0 %
Test CRC CA6C0DE8
Copy CRC CA6C0DE8
Cannot be verified as accurate (confidence 2) [1536BE85], AccurateRip returned [33549C1C] (AR v2)
Copy OK

Track 21 Filename E:\MUSIC\My Music\Re subir\Ray Conniff\Ray Conniff Two Classic Albums - It´s The Talk Of The Town - Young At Heart\CD\21 Young At Heart.wav Peak level 92.9 %
Extraction speed 2.1 X
Track quality 99.9 %
Test CRC E3333131
Copy CRC E3333131
Cannot be verified as accurate (confidence 2) [D1B9CE29], AccurateRip returned [1D47B460] (AR v2)
Copy OK

Track 22 Filename E:\MUSIC\My Music\Re subir\Ray Conniff\Ray Conniff Two Classic Albums - It´s The Talk Of The Town - Young At Heart\CD\22 If I Loved You.wav Peak level 84.2 %
Extraction speed 3.3 X
Track quality 100.0 %
Test CRC 63C4D90E
Copy CRC 63C4D90E
Cannot be verified as accurate (confidence 2) [4F16D59B], AccurateRip returned [8B732B70] (AR v2)
Copy OK

Track 23 Filename E:\MUSIC\My Music\Re subir\Ray Conniff\Ray Conniff Two Classic Albums - It´s The Talk Of The Town - Young At Heart\CD\23 Harbor Lights.wav Peak level 83.4 %
Extraction speed 2.2 X
Track quality 99.9 %
Test CRC 4F157AE0
Copy CRC 4F157AE0
Cannot be verified as accurate (confidence 2) [6DD24C83], AccurateRip returned [E15266C0] (AR v2)
Copy OK

Track 24 Filename E:\MUSIC\My Music\Re subir\Ray Conniff\Ray Conniff Two Classic Albums - It´s The Talk Of The Town - Young At Heart\CD\24 I'll See You In My Dreams.wav Peak level 86.3 %
Extraction speed 3.3 X
Track quality 100.0 %
Test CRC EBDBD638
Copy CRC EBDBD638
Cannot be verified as accurate (confidence 2) [6053B06E], AccurateRip returned [7AB99752] (AR v2)
Copy OK

No tracks could be verified as accurate
You may have a different pressing from the one(s) in the database

No errors occurred

End of status report

==== Log checksum A5581A9F2170C6372F5C787F985644772B95E31A17283C9CD7025609014D0461 ====
DOWNLOAD LINKS
Buy Premium From My Links To Get Resumable Support & Max Speed & To Support Me


Links are Interchangeable - No Password - Single Extraction
Direct Download

Tags: Conniff, Classic, Albums

Ray Conniff - Two Classic Albums - It's The Talk Of The Town / Young At Heart (2 LP in 1 CD , 1998 ) Re Up Download via Hotfile Rapidshare Fileserve Megaupload & FileSonic, Ray Conniff - Two Classic Albums - It's The Talk Of The Town / Young At Heart (2 LP in 1 CD , 1998 ) Re Up free torrent downloads included crack, serial, keygen.Ray Conniff - Two Classic Albums - It's The Talk Of The Town / Young At Heart (2 LP in 1 CD , 1998 ) Re Up Fast Download via Rapidshare Hotfile Fileserve Filesonic Megaupload, Ray Conniff - Two Classic Albums - It's The Talk Of The Town / Young At Heart (2 LP in 1 CD , 1998 ) Re Up Torrents and Emule Download or anything related.
Leave a Comment
Your Name:
E-Mail:
Add Comments:

Enter Code: