Living Colour - Vivid (1988)

Download Now

Living Colour - Vivid (1988)

Living Colour - Vivid (1988)
Rock | 1cd | EAC Rip | Ape + Cue + Log | covers
Epic EK 44099 | rel: 1988 | 355Mb

In 1988, few heavy metal bands were comprised of all black members, and fewer had the talent or know-how to inject different musical forms into their hard rock sound (funk, punk, alternative, jazz, soul, rap) -- but N.Y.C.'s Living Colour proved to be an exception. Unlike nearly all of the era's metal bands, the group's music has held up over time, thanks to its originality and execution. Living Colour leader/guitarist Vernon Reid spent years honing his six-string chops, and was one of the most respected guitarists in New York's underground scene.
He couldn't have done a better job selecting members for his new rock band -- singer Corey Glover, bassist Muzz Skillings, and drummer Will Calhoun -- as their now-classic debut, Vivid, proves. Though the album was released in mid-1988, it picked up steam slowly, exploding at the year's end with the hit single/MTV anthem "Cult of Personality," which merged an instantly recognizable Reid guitar riff and lyrics that explored the dark side of world leaders past and present (and remains LC's best-known song). The album was also incredibly consistent, as proven by the rocker "Middle Man" (which contains lyrics from a note penned by Glover, in which he pondered suicide), the funky, anti-racist "Funny Vibe," the touching "Open Letter (To a Landlord)," plus the Caribbean rock of "Glamour Boys." Add to it an inspired reading of Talking Heads' "Memories Can't Wait," the Zeppelin-esque "Desperate People," and two complex love songs ("I Want to Know" and "Broken Hearts"), and you have one of the finest hard rock albums of the '80s -- and for that matter, all time. ~Allmusic

Track listing
01. Cult Of Personality (4:55)
02. I Want To Know (4:24)
03. Middle Man (3:47)
04. Desperate People (5:36)
05. Open Letter (To A Landlord) (5:33)
06. Funny Vibe (4:20)
07. Memories Can't Wait (4:31)
08. Broken Hearts (4:50)
09. Glamour Boys (3:40)
10. What's Your Favorite Color? (Theme Song) (3:56)
11. Which Way To America? (3:42)
~ (49:14)

Personnel
- Corey Glover - vocals
- Vernon Reid - guitar
- Muzz Skillings - bass
- Will Calhoun - drums
Additional personnel
- Mick Jagger - harmonica (8), backing vocals
- Chuck D - rapping (6)
- Flavor Flav - social commentary (6)
- The Fowler Family - additional backing vocals (2 and 5)
- Dennis Diamond - carnival barker (8)

Exact Audio Copy V0.99 prebeta 4 from 23. January 2008

EAC extraction logfile from 6. August 2009, 11:57

Living Colour / Vivid

Used drive : HL-DT-STDVDRAM GSA-T20L Adapter: 0 ID: 0

Read mode : Secure
Utilize accurate stream : Yes
Defeat audio cache : Yes
Make use of C2 pointers : No

Read offset correction

: 667
Overread into Lead-In and Lead-Out : No
Fill up missing offset samples with silence : Yes
Delete leading and trailing silent blocks : No
Null samples used in CRC calculations : Yes
Used interface
: Native Win32 interface for Win NT & 2000

Used output format : Monkey's Audio Lossless Encoder
Selected bitrate : High Lossless Compression
Quality : High
Add ID3 tag : Yes
Command line compressor : C:\Program Files\Exact Audio Copy\MAC.EXE

TOC of the extracted CD Track | Start | Length | Start sector | End sector
1 | 0:00.00 | 4:54.45 | 0 | 22094 2 | 4:54.45 | 4:24.07 | 22095 | 41901 3 | 9:18.52 | 3:47.20 | 41902 | 58946 4 | 13:05.72 | 5:36.15 | 58947 | 84161 5 | 18:42.12 | 5:32.58 | 84162 | 109119 6 | 24:14.70 | 4:20.22 | 109120 | 128641 7 | 28:35.17 | 4:30.53 | 128642 | 148944 8 | 33:05.70 | 4:50.37 | 148945 | 170731 9 | 37:56.32 | 3:39.68 | 170732 | 187224
10 | 41:36.25 | 3:55.65 | 187225 | 204914
11 | 45:32.15 | 3:41.70 | 204915 | 221559

Range status and errors

Selected range Filename C:\Users\Ave Fenix\Incomletyo\EAC Project\Living Colour - Vivid.wav Peak level 100.0 %
Range quality 100.0 %
Copy CRC A58DA86C
Copy OK

No errors occurred


AccurateRip summary

Track 1 accurately ripped (confidence 19) [EB60A6F3]
Track 2 accurately ripped (confidence 19) [049B2CE7]
Track 3 accurately ripped (confidence 18) [5EE32DA8]
Track 4 accurately ripped (confidence 18) [25FC1D48]
Track 5 accurately ripped (confidence 19) [54FA9C20]
Track 6 accurately ripped (confidence 19) [9904D259]
Track 7 accurately ripped (confidence 19) [EACFC110]
Track 8 accurately ripped (confidence 19) [673680DC]
Track 9 accurately ripped (confidence 19) 8D2E50D
Track 10 accurately ripped (confidence 19) [3D8BB8A4]
Track 11 accurately ripped (confidence 18) [940662E3]

All tracks accurately ripped

End of status report

[CUETools log; Date: 2015.06.02. 11:21:59; Version: 2.1.5]
[CTDB TOCID: uBhQZT9RW_1R8l04bJCC4JM.M6c-] found.
Track | CTDB Status
1 | (162/163) Accurately ripped
2 | (162/163) Accurately ripped
3 | (162/163) Accurately ripped
4 | (162/163) Accurately ripped
5 | (162/163) Accurately ripped
6 | (162/163) Accurately ripped
7 | (162/163) Accurately ripped
8 | (162/163) Accurately ripped
9 | (162/163) Accurately ripped
10 | (162/163) Accurately ripped
11 | (162/163) Accurately ripped
[AccurateRip ID: 001507c5-00b5806c-af0b8a0b] found.
Track [ CRC | V2 ] Status
01 [eb60a6f3|64dd63b5] (035+019/395) Accurately ripped
02 [049b2ce7|b5e20127] (034+018/399) Accurately ripped
03 [5ee32da8|e9f171f0] (033+018/396) Accurately ripped
04 [25fc1d48|42c04c42] (034+017/393) Accurately ripped
05 [54fa9c20|fd89abd4] (035+018/396) Accurately ripped
06 [9904d259|d9138816] (034+017/381) Accurately ripped
07 [eacfc110|3b16b84d] (035+017/390) Accurately ripped
08 [673680dc|3d607684] (034+017/386) Accurately ripped
09 8d2e50d|0892bfec (035+019/394) Accurately ripped
10 [3d8bb8a4|b958e6f4] (035+017/391) Accurately ripped
11 [940662e3|d68d10fc] (034+017/388) Accurately ripped
Offsetted by -1008:
01 [400140cc] (003/395) Accurately ripped
02 7bf96a0 (003/399) Accurately ripped
03 [98d391d8] (003/396) Accurately ripped
04 [61d1a096] (003/393) Accurately ripped
05 [a01bb841] (003/396) Accurately ripped
06 [e7b13e6d] (003/381) Accurately ripped
07 [4388d1e8] (003/390) Accurately ripped
08 [33b68a6b] (003/386) Accurately ripped
09 [d23bb91a] (004/394) Accurately ripped
10 [4a108b2e] (003/391) Accurately ripped
11 [0296c5d8] (003/388) Accurately ripped
Offsetted by -963:
01 [17c74bb2] (010/395) Accurately ripped
02 [40838641] (010/399) Accurately ripped
03 [a40e48b8] (010/396) Accurately ripped
04 [840f8e45] (010/393) Accurately ripped
05 [f3ca2f33] (010/396) Accurately ripped
06 [c6e1d15f] (010/381) Accurately ripped
07 [16938d16] (010/390) Accurately ripped
08 [62372fe5] (010/386) Accurately ripped
09 [f9d092bf] (010/394) Accurately ripped
10 [d6e3652b] (010/391) Accurately ripped
11 [926ac756] (010/388) Accurately ripped
Offsetted by -690:
01 [cc7ed88e] (003/395) Accurately ripped
02 [2706a0c9] (003/399) Accurately ripped
03 [456559ee] (003/396) Accurately ripped
04 [ec4ab9b2] (003/393) Accurately ripped
05 [26b94beb] (003/396) Accurately ripped
06 [151621c3] (003/381) Accurately ripped
07 [c25d3433] (003/390) Accurately ripped
08 [9e8c2e3d] (003/386) Accurately ripped
09 [09e8b585] (003/394) Accurately ripped
10 [297ffec5] (003/391) Accurately ripped
11 [5d73384c] (003/388) Accurately ripped
Offsetted by -581:
01 [1ec3710c] (002/395) Accurately ripped
02 [295f968b] (002/399) Accurately ripped
03 [d12ce5d7] (002/396) Accurately ripped
04 [f35dd8fe] (002/393) Accurately ripped
05 [a803f373] (002/396) Accurately ripped
06 [8e600a4c] (002/381) Accurately ripped
07 [1edced90] (004/390) Accurately ripped
08 [abe88f65] (004/386) Accurately ripped
09 [640d05de] (004/394) Accurately ripped
10 [9b0ebdbc] (004/391) Accurately ripped
11 [d5a71727] (004/388) Accurately ripped
Offsetted by -547:
01 [56035601] (004/395) Accurately ripped
02 [536a2817] (004/399) Accurately ripped
03 [00682f7f] (004/396) Accurately ripped
04 [4635d555] (004/393) Accurately ripped
05 [0d42fb0d] (004/396) Accurately ripped
06 [0ee4fd17] (004/381) Accurately ripped
07 [7e8f457d] (004/390) Accurately ripped
08 [d211e60b] (004/386) Accurately ripped
09 9ed973e (004/394) Accurately ripped
10 [dc66b9c4] (004/391) Accurately ripped
11 [213bd2f7] (004/388) Accurately ripped
Offsetted by -307:
01 [efff8eab] (003/395) Accurately ripped
02 [aee25273] (003/399) Accurately ripped
03 bdd4c63 (003/396) Accurately ripped
04 [5fcc886c] (003/393) Accurately ripped
05 [c37a342d] (003/396) Accurately ripped
06 [18618a4e] (003/381) Accurately ripped
07 f5a8040 (003/390) Accurately ripped
08 [47af1695] (003/386) Accurately ripped
09 [92931446] (003/394) Accurately ripped
10 [1aa8c828] (003/391) Accurately ripped
11 [eeae9eb6] (003/388) Accurately ripped
Offsetted by -60:
01 [f71e1dc7] (033/395) Accurately ripped
02 [655750e5] (031/399) Accurately ripped
03 [3e79b4c2] (031/396) Accurately ripped
04 5e7be30 (031/393) Accurately ripped
05 [9dc782b4] (032/396) Accurately ripped
06 [8f2342e1] (031/381) Accurately ripped
07 [610472f6] (032/390) Accurately ripped
08 [df60e880] (031/386) Accurately ripped
09 [fa557f68] (033/394) Accurately ripped
10 [53904e46] (031/391) Accurately ripped
11 [7f9ad36c] (031/388) Accurately ripped
Offsetted by 77:
01 [857be73a] (050/395) Accurately ripped
02 [754ed31a] (053/399) Accurately ripped
03 d5ee93e (053/396) Accurately ripped
04 [0711bf5f] (052/393) Accurately ripped
05 [ec3201a8] (052/396) Accurately ripped
06 [e626a290] (051/381) Accurately ripped
07 [970394da] (051/390) Accurately ripped
08 [3be557cb] (051/386) Accurately ripped
09 [76fa335b] (052/394) Accurately ripped
10 [85e1a24a] (052/391) Accurately ripped
11 [70c31e1e] (050/388) Accurately ripped
Offsetted by 174:
01 [1e29ea3c] (006/395) Accurately ripped
02 [1f7fa667] (006/399) Accurately ripped
03 [46291486] (006/396) Accurately ripped
04 [63be1962] (006/393) Accurately ripped
05 [40a98ba8] (005/396) Accurately ripped
06 [feabe5a8] (005/381) Accurately ripped
07 [ad29c35c] (005/390) Accurately ripped
08 [19b1c7a8] (005/386) Accurately ripped
09 [e3f0752a] (005/394) Accurately ripped
10 [420c56ba] (006/391) Accurately ripped
11 [01934488] (006/388) Accurately ripped
Offsetted by 260:
01 [41e176da] (081/395) Accurately ripped
02 [4f6c93f0] (082/399) Accurately ripped
03 [6f1c09ce] (083/396) Accurately ripped
04 [6dfbfc84] (082/393) Accurately ripped
05 [ab206e76] (083/396) Accurately ripped
06 [74817119] (078/381) Accurately ripped
07 [3df7564a] (079/390) Accurately ripped
08 [446708b3] (076/386) Accurately ripped
09 [6d4bd0d5] (078/394) Accurately ripped
10 [e8fb41b9] (080/391) Accurately ripped
11 [1669fda5] (077/388) Accurately ripped
Offsetted by -1167:
01 [124d2c27] (000/395) No match (V2 was not tested)
02 [c224deeb] (000/399) No match (V2 was not tested)
03 [4b654d94] (000/396) No match (V2 was not tested)
04 [903ed904] (000/393) No match (V2 was not tested)
05 [4766a554] (000/396) No match (V2 was not tested)
06 [93a9410a] (000/381) No match (V2 was not tested)
07 [85b07854] (000/390) No match (V2 was not tested)
08 [91bb0e2d] (000/386) No match (V2 was not tested)
09 a4c0052 (000/394) No match (V2 was not tested)
10 [4488efda] (000/391) No match (V2 was not tested)
11 [57e65d94] (000/388) No match (V2 was not tested)
Offsetted by -943:
01 [e7f7451e] (000/395) No match (V2 was not tested)
02 [882fbefb] (002/399) Accurately ripped
03 [a331e05b] (002/396) Accurately ripped
04 [2fad6bce] (000/393) No match (V2 was not tested)
05 [e1100a51] (000/396) No match (V2 was not tested)
06 [9062c394] (000/381) No match (V2 was not tested)
07 [6d4d6026] (000/390) No match (V2 was not tested)
08 [ff74ac13] (000/386) No match (V2 was not tested)
09 [af777c66] (000/394) No match (V2 was not tested)
10 [39317dc3] (000/391) No match (V2 was not tested)
11 [7c938e2c] (000/388) No match (V2 was not tested)
Offsetted by -583:
01 [984dbd53] (002/395) Accurately ripped
02 [571b74fe] (002/399) Accurately ripped
03 [96723dc9] (000/396) No match (V2 was not tested)
04 [243027b9] (002/393) Accurately ripped
05 [1c942e59] (002/396) Accurately ripped
06 [74649eb9] (000/381) No match (V2 was not tested)
07 [c5035748] (000/390) No match
08 b8bf312 (000/386) No match
09 [3f64df28] (000/394) No match
10 [f722e26a] (000/391) No match
11 95e2b64 (000/388) No match
Offsetted by -287:
01 [ead48598] (002/395) Accurately ripped
02 e663c73 (002/399) Accurately ripped
03 [8341643e] (002/396) Accurately ripped
04 [e5627741] (002/393) Accurately ripped
05 [4d825c77] (002/396) Accurately ripped
06 [de2fb339] (000/381) No match (V2 was not tested)
07 [07d986b7] (002/390) Accurately ripped
08 [314f7dcf] (002/386) Accurately ripped
09 [c552a26e] (002/394) Accurately ripped
10 ff19127 (002/391) Accurately ripped
11 [4ba474ec] (002/388) Accurately ripped
Offsetted by -253:
01 [7d56e861] (000/395) No match (V2 was not tested)
02 [36ac5a7d] (000/399) No match
03 [1ec13e54] (000/396) No match
04 [a4e517ec] (000/393) No match
05 [cd9c1e42] (000/396) No match
06 [04a478af] (000/381) No match
07 [234d11ce] (000/390) No match
08 [c2ec0e0a] (000/386) No match
09 [e3a95d51] (000/394) No match
10 67f0428 (000/391) No match
11 [5b5b5a35] (000/388) No match
Offsetted by -13:
01 [e76713a0] (000/395) No match (V2 was not tested)
02 [44083370] (000/399) No match (V2 was not tested)
03 [8ee24b8a] (000/396) No match (V2 was not tested)
04 [22829112] (000/393) No match (V2 was not tested)
05 [9fbf1845] (000/396) No match (V2 was not tested)
06 [a51f98b5] (000/381) No match (V2 was not tested)
07 [ab3f47ff] (000/390) No match (V2 was not tested)
08 [09d73011] (000/386) No match (V2 was not tested)
09 [a4fc5c8f] (000/394) No match (V2 was not tested)
10 [187af0fa] (000/391) No match (V2 was not tested)
11 [49359c02] (000/388) No match (V2 was not tested)
Offsetted by 83:
01 [5c72b9e0] (000/395) No match
02 [071ac8f5] (000/399) No match
03 [f0db5441] (000/396) No match
04 [409a50fb] (000/393) No match
05 [17a26745] (000/396) No match
06 [aed27071] (000/381) No match
07 [87068b6b] (000/390) No match
08 [8c8f11eb] (000/386) No match (V2 was not tested)
09 [e47df640] (000/394) No match
10 [14a75e4c] (000/391) No match
11 cba60f0 (000/388) No match
Offsetted by 173:
01 [3d4b1082] (000/395) No match (V2 was not tested)
02 [54e7d127] (000/399) No match (V2 was not tested)
03 [f23b6a4c] (000/396) No match (V2 was not tested)
04 [0853c0b7] (000/393) No match (V2 was not tested)
05 [59e836b4] (000/396) No match (V2 was not tested)
06 [a65576e9] (000/381) No match (V2 was not tested)
07 [fdb29205] (000/390) No match (V2 was not tested)
08 e3e71f9 (000/386) No match (V2 was not tested)
09 [fc78efb7] (000/394) No match (V2 was not tested)
10 9ea1de1 (000/391) No match (V2 was not tested)
11 [f28ab53a] (000/388) No match (V2 was not tested)
Offsetted by 217:
01 [a18d0bda] (000/395) No match (V2 was not tested)
02 [0179de7e] (000/399) No match (V2 was not tested)
03 [3c4c10ee] (000/396) No match (V2 was not tested)
04 [7e9529de] (000/393) No match (V2 was not tested)
05 [93d306b4] (000/396) No match (V2 was not tested)
06 [e5e535fe] (000/381) No match (V2 was not tested)
07 [fed1010b] (000/390) No match (V2 was not tested)
08 [8644a735] (000/386) No match (V2 was not tested)
09 [20d01a7c] (000/394) No match (V2 was not tested)
10 [d7d4c380] (000/391) No match (V2 was not tested)
11 [f0d0cd9f] (000/388) No match (V2 was not tested)

Track Peak [ CRC32 ] [W/O NULL] [ LOG ]
-- 100,0 [A58DA86C] [6D4FD4DE] CRC32
01 91,5 [7D32EDAC] [5AB773F8]
02 91,3 [C225E818] [AF6C65BA]
03 93,3 [1DE676D3] [1809A9EB]
04 96,1 [16DDEE1E] D56918A
05 100,0 4753149 [58EB828B]
06 94,0 [2378E8F5] [74D0F994]
07 98,3 [A368BFDB] [9B4AB0F8]
08 94,6 [E0CF4217] [9EB0D24D]
09 97,0 [D722D15A] [7B30B91B]
10 97,4 [4D35EBDE] DD56525
11 97,1 [7C896299] [F272DEF0]

Thx to Ave Fenix
DOWNLOAD LINKS
Buy Premium From My Links To Get Resumable Support & Max Speed & To Support Me


Links are Interchangeable - No Password - Single Extraction
Direct Download

Tags: Living, Colour

Living Colour - Vivid (1988) Download via Hotfile Rapidshare Fileserve Megaupload & FileSonic, Living Colour - Vivid (1988) free torrent downloads included crack, serial, keygen.Living Colour - Vivid (1988) Fast Download via Rapidshare Hotfile Fileserve Filesonic Megaupload, Living Colour - Vivid (1988) Torrents and Emule Download or anything related.
Leave a Comment
Your Name:
E-Mail:
Add Comments:

Enter Code: