Thelonious Monk Quartet with John Coltrane - At Carnegie Hall (2005) (Blue Note)

Download Now

Thelonious Monk Quartet with John Coltrane - At Carnegie Hall (2005) (Blue Note)

Thelonious Monk Quartet with John Coltrane - At Carnegie Hall (2005) (Blue Note)
EAC Rip | FLAC with CUE and log @ 327mb | scans
MP3 @ 153mb | CBR 320kbps | RAR
Genre: jazz

At Carnegie Hall is a 2005 CD from Blue Note of a 29 November, 1957 performance by Thelonious Monk Quartet with guest John Coltrane at Carnegie Hall in New York City. This was recorded by the Voice Of America.
Thelonious Monk Quartet with John Coltrane - At Carnegie Hall (2005) (Blue Note)

1. Monk's Mood
2. Evidence
3. Crepuscule With Nellie
4. Nutty
5. Epistrophy
6. Bye-Ya
7. Sweet and Lovely
8. Blue Monk
9. Epistrophy (incomplete)

Thelonious Monk Quartet with John Coltrane - At Carnegie Hall (2005) (Blue Note)



EAC extraction logfile from 2. October 2005, 8:28 for CD
Thelonious Monk Quartet with John Coltrane / At Carnegie Hall

Used drive : LITE-ON DVDRW SOHW-1633S Adapter: 0 ID: 0
Read mode : Secure with NO C2, accurate stream, disable cache
Read offset correction : 12
Overread into Lead-In and Lead-Out : No

Used output format : Internal WAV Routines 44.100 Hz; 16 Bit; Stereo

Other options :
Fill up missing offset samples with silence : Yes
Delete leading and trailing silent blocks : No
Installed external ASPI interface

Track 1
Filename C:\FLAC\Thelonious Monk Quartet with John Coltrane - At Carnegie Hall (2005) [FLAC] (Blue Note)\01 - Monk's Mood.wav Pre-gap length 0:00:02.00 Peak level 70.2 %
Track quality 100.0 %
Test CRC C2F608A8
Copy CRC C2F608A8
Copy OK

Track 2
Filename C:\FLAC\Thelonious Monk Quartet with John Coltrane - At Carnegie Hall (2005) [FLAC] (Blue Note)\02 - Evidence.wav Peak level 99.5 %
Track quality 100.0 %
Test CRC 6AC42777
Copy CRC 6AC42777
Copy OK

Track 3
Filename C:\FLAC\Thelonious Monk Quartet with John Coltrane - At Carnegie Hall (2005) [FLAC] (Blue Note)\03 - Crepuscule With Nellie.wav Peak level 77.1 %
Track quality 99.9 %
Test CRC 58CD65CA
Copy CRC 58CD65CA
Copy OK

Track 4
Filename C:\FLAC\Thelonious Monk Quartet with John Coltrane - At Carnegie Hall (2005) [FLAC] (Blue Note)\04 - Nutty.wav Peak level 99.8 %
Track quality 100.0 %
Test CRC 538B97C9
Copy CRC 538B97C9
Copy OK

Track 5
Filename C:\FLAC\Thelonious Monk Quartet with John Coltrane - At Carnegie Hall (2005) [FLAC] (Blue Note)\05 - Epistrophy.wav Peak level 100.0 %
Track quality 100.0 %
Test CRC 268EBEC8
Copy CRC 268EBEC8
Copy OK

Track 6
Filename C:\FLAC\Thelonious Monk Quartet with John Coltrane - At Carnegie Hall (2005) [FLAC] (Blue Note)\06 - Bye-Ya.wav Pre-gap length 0:00:01.00 Peak level 99.0 %
Track quality 100.0 %
Test CRC EC54188A
Copy CRC EC54188A
Copy OK

Track 7
Filename C:\FLAC\Thelonious Monk Quartet with John Coltrane - At Carnegie Hall (2005) [FLAC] (Blue Note)\07 - Sweet and Lovely.wav Peak level 98.8 %
Track quality 100.0 %
Test CRC 6B773BD5
Copy CRC 6B773BD5
Copy OK

Track 8
Filename C:\FLAC\Thelonious Monk Quartet with John Coltrane - At Carnegie Hall (2005) [FLAC] (Blue Note)\08 - Blue Monk.wav Peak level 98.7 %
Track quality 100.0 %
Test CRC 728D8C2A
Copy CRC 728D8C2A
Copy OK

Track 9
Filename C:\FLAC\Thelonious Monk Quartet with John Coltrane - At Carnegie Hall (2005) [FLAC] (Blue Note)\09 - Epistrophy (incomplete).wav Peak level 98.9 %
Track quality 100.0 %
Test CRC 8805D002
Copy CRC 8805D002
Copy OK

No errors occured

End of status report
DOWNLOAD LINKS
Buy Premium From My Links To Get Resumable Support & Max Speed & To Support Me


Links are Interchangeable - No Password - Single Extraction
Direct Download

Tags: Thelonious, Quartet, Coltrane, Carnegie

Thelonious Monk Quartet with John Coltrane - At Carnegie Hall (2005) (Blue Note) Download via Hotfile Rapidshare Fileserve Megaupload & FileSonic, Thelonious Monk Quartet with John Coltrane - At Carnegie Hall (2005) (Blue Note) free torrent downloads included crack, serial, keygen.Thelonious Monk Quartet with John Coltrane - At Carnegie Hall (2005) (Blue Note) Fast Download via Rapidshare Hotfile Fileserve Filesonic Megaupload, Thelonious Monk Quartet with John Coltrane - At Carnegie Hall (2005) (Blue Note) Torrents and Emule Download or anything related.
Leave a Comment
Your Name:
E-Mail:
Add Comments:

Enter Code: