The Crimson Projekct - Official Bootleg Limited Edition (Live Recorded At Club Citta' On Mar.16.2013)

Download Now

The Crimson Projekct - Official Bootleg Limited Edition (Live Recorded At Club Citta' On Mar.16.2013)

The Crimson Projekct - Official Bootleg Limited Edition (Live Recorded At Club Citta' On Mar.16.2013)
EAC | Flac(Image) + Cue + Log & MP3 CBR 320Kbps
Vivid Sound, VSPR4106 | ~ 561 or 214 Mb | Scans Included
Progressive Rock / Psychedelic Rock

"The Crimson ProjeKCt is a King Crimson offshoot featuring 3 current members of that historic band, primarily focusing on repertoire from early 1980s through to the mid-90s..."


Tracklist CD1:

01. Red (06:28)
02. Dinosaur (05:06)
03. Sleepless (07:23)
04. Elephant Talk (05:29)
05. Three Of A Perfect Pair (03:36)
06. B'Boom (10:17)
07. THRAK (05:48)

Exact Audio Copy V1.0 beta 4 from 7. December 2014

EAC extraction logfile from 20. April 2015, 18:32

The Crimson ProjeKct / Official Bootleg Limited Edition Live Recorded At Club Citta Mar.16.2013

Used drive : PLEXTOR CD-R PX-240A Adapter: 0 ID: 0

Read mode : Secure
Utilize accurate stream : Yes
Defeat audio cache : Yes
Make use of C2 pointers : No

Read offset correction

: 6
Overread into Lead-In and Lead-Out : No
Fill up missing offset samples with silence : Yes
Delete leading and trailing silent blocks : No
Null samples used in CRC calculations : Yes
Used interface
: Installed external ASPI interface

Used output format : Internal WAV Routines
Sample format : 44.100 Hz; 16 Bit; Stereo

TOC of the extracted CD Track | Start | Length | Start sector | End sector
1 | 0:00.00 | 6:27.41 | 0 | 29065 2 | 6:27.41 | 5:05.48 | 29066 | 51988 3 | 11:33.14 | 7:23.26 | 51989 | 85239 4 | 18:56.40 | 5:28.69 | 85240 | 109908 5 | 24:25.34 | 3:36.23 | 109909 | 126131 6 | 28:01.57 | 10:17.05 | 126132 | 172411 7 | 38:18.62 | 5:47.62 | 172412 | 198498

Range status and errors

Selected range Filename Z:\data\hexonut\Seeding\The Crimson ProjeKct\2013-Official Bootleg Live Recorded At Club Citta Mar.16.2013\Club Citta Mar.16.2013.wav Peak level 100.0 %
Extraction speed 8.6 X
Range quality 100.0 %
Test CRC 2EAA5144
Copy CRC 2EAA5144
Copy OK

No errors occurred


AccurateRip summary

Track 1 not present in database
Track 2 not present in database
Track 3 not present in database
Track 4 not present in database
Track 5 not present in database
Track 6 not present in database
Track 7 not present in database

None of the tracks are present in the AccurateRip database

End of status report

==== Log checksum 804E8E852876FE90F5B6A380723DF413493B5D49653672ED0C848A6DE0095C08 ====

foobar2000 1.2.9 / Dynamic Range Meter 1.1.1
log date: 2015-06-07 10:22:39

------
Analyzed: The Crimson ProjeKCt / Official Bootleg Limited Edition Live Recorded At Club Citta Mar.16.2013 CD 1
------

DR Peak RMS Duration Track
------
DR7 0.00 dB -8.34 dB 6:28 01-Red
DR6 0.00 dB -8.40 dB 5:06 02-Dinosaur
DR6 -0.04 dB -8.05 dB 7:23 03-Sleepless
DR8 0.00 dB -9.90 dB 5:29 04-Elephant Talk
DR7 -0.16 dB -8.98 dB 3:36 05-Three Of A Perfect Pair
DR7 0.00 dB -10.25 dB 10:17 06-B'Boom
DR7 0.00 dB -9.80 dB 5:48 07-THRAK
------

Number of tracks: 7
Official DR value: DR7

Samplerate: 44100 Hz
Channels: 2
Bits per sample: 16
Bitrate: 881 kbps
Codec: FLAC

[CUETools log; Date: 07.06.2015 9:44:18; Version: 2.1.4]
[CTDB TOCID: GJtG2kA.3j_ln9L_X2jVll7pS0U-] found.
Track | CTDB Status
1 | (3/3) Accurately ripped
2 | (3/3) Accurately ripped
3 | (3/3) Accurately ripped
4 | (3/3) Accurately ripped
5 | (3/3) Accurately ripped
6 | (3/3) Accurately ripped
7 | (3/3) Accurately ripped
[AccurateRip ID: 000bcc7f-00470c91-600a5607] disk not present in database.

Track Peak [ CRC32 ] [W/O NULL] [ LOG ]
-- 100,0 [2EAA5144] [037A5131] CRC32
01 100,0 [1A7DC243] [EDF81149]
02 99,9 [5070A729] [F0CF3B51]
03 99,5 [C6F6C326] [1F05A4EF]
04 100,0 [E0D24640] [205E0709]
05 98,1 [13A95637] [98317C2E]
06 100,0 [8E7B0A8D] [89F51B9E]
07 100,0 [F3786A2C] [DCBA3E12]

The Crimson Projekct - Official Bootleg Limited Edition (Live Recorded At Club Citta' On Mar.16.2013)

Tracklist CD2:

01. VROOOM VROOOM / Stick Men (05:54)
02. Neurotica / Adrian Belew Power Trio (06:24)
03. Indiscipline (11:52)
04. Frame By Frame (06:01)
05. Thela Hun Ginjeet (07:28)

Exact Audio Copy V1.0 beta 4 from 7. December 2014

EAC extraction logfile from 20. April 2015, 19:18

The Crimson ProjeKct / Official Bootleg Live Recorded At Club Citta Mar.16.2013 CD 2

Used drive : PLEXTOR CD-R PX-240A Adapter: 0 ID: 0

Read mode : Secure
Utilize accurate stream : Yes
Defeat audio cache : Yes
Make use of C2 pointers : No

Read offset correction

: 6
Overread into Lead-In and Lead-Out : No
Fill up missing offset samples with silence : Yes
Delete leading and trailing silent blocks : No
Null samples used in CRC calculations : Yes
Used interface
: Installed external ASPI interface

Used output format : Internal WAV Routines
Sample format : 44.100 Hz; 16 Bit; Stereo

TOC of the extracted CD Track | Start | Length | Start sector | End sector
1 | 0:00.00 | 5:54.26 | 0 | 26575 2 | 5:54.26 | 6:23.61 | 26576 | 55361 3 | 12:18.12 | 11:51.73 | 55362 | 108759 4 | 24:10.10 | 6:01.24 | 108760 | 135858 5 | 30:11.34 | 7:27.51 | 135859 | 169434

Range status and errors

Selected range Filename Z:\data\hexonut\Seeding\The Crimson ProjeKct\2013-Official Bootleg Live Recorded At Club Citta Mar.16.2013\Club Citta Mar.16.2013 CD 2.wav Peak level 100.0 %
Extraction speed 8.2 X
Range quality 100.0 %
Test CRC 33376F2A
Copy CRC 33376F2A
Copy OK

No errors occurred


AccurateRip summary

Track 1 not present in database
Track 2 not present in database
Track 3 not present in database
Track 4 not present in database
Track 5 not present in database

None of the tracks are present in the AccurateRip database

End of status report

==== Log checksum D9196A2C4C70166B38EE889A47221F51E814F8FA40CA6431B0865B8D9C67FAB9 ====

foobar2000 1.2.9 / Dynamic Range Meter 1.1.1
log date: 2015-06-07 10:22:55

------
Analyzed: Stick Men / Official Bootleg Limited Edition Live Recorded At Club Citta Mar.16.2013 CD 2 (1) The Crimson ProjeKCt / Official Bootleg Limited Edition Live Recorded At Club Citta Mar.16.2013 CD 2 (2-4)
------

DR Peak RMS Duration Track
------
DR8 -0.14 dB -10.36 dB 5:54 01-VROOOM VROOOM
DR7 0.00 dB -10.06 dB 11:52 03-Indiscipline
DR8 -0.14 dB -12.26 dB 6:01 04-Frame By Frame
DR6 0.00 dB -7.49 dB 7:28 05-Thela Hun Ginjeet
------

Number of tracks: 4
Official DR value: DR7

Samplerate: 44100 Hz
Channels: 2
Bits per sample: 16
Bitrate: 875 kbps
Codec: FLAC

[CUETools log; Date: 07.06.2015 9:46:26; Version: 2.1.4]
[CTDB TOCID: 7W7o.Yn8B2Xex.TrfQ57aycJLwk-] found.
Track | CTDB Status
1 | (3/3) Accurately ripped
2 | (3/3) Accurately ripped
3 | (3/3) Accurately ripped
4 | (3/3) Accurately ripped
5 | (3/3) Accurately ripped
[AccurateRip ID: 00079178-0023dc68-3408d305] disk not present in database.

Track Peak [ CRC32 ] [W/O NULL] [ LOG ]
-- 100,0 [33376F2A] [C349ACA4] CRC32
01 98,3 [FFC53E82] [F66D4F03]
02 98,8 7FFF877 [1552CB0D]
03 100,0 [05AA3740] [6EA96FC3]
04 98,3 [C05EC059] [90030E59]
05 99,9 [A4CCB6ED] [2C838D78]

The Crimson Projekct - Official Bootleg Limited Edition (Live Recorded At Club Citta' On Mar.16.2013)

DOWNLOAD LINKS
Buy Premium From My Links To Get Resumable Support & Max Speed & To Support Me


Links are Interchangeable - No Password - Single Extraction
Direct Download

Tags: Crimson, Projekct, Official, Bootleg, Limited, Recorded

The Crimson Projekct - Official Bootleg Limited Edition (Live Recorded At Club Citta' On Mar.16.2013) Download via Hotfile Rapidshare Fileserve Megaupload & FileSonic, The Crimson Projekct - Official Bootleg Limited Edition (Live Recorded At Club Citta' On Mar.16.2013) free torrent downloads included crack, serial, keygen.The Crimson Projekct - Official Bootleg Limited Edition (Live Recorded At Club Citta' On Mar.16.2013) Fast Download via Rapidshare Hotfile Fileserve Filesonic Megaupload, The Crimson Projekct - Official Bootleg Limited Edition (Live Recorded At Club Citta' On Mar.16.2013) Torrents and Emule Download or anything related.
Leave a Comment
Your Name:
E-Mail:
Add Comments:

Enter Code: