Hot Tuna - Hot Tuna (1970) [Japanese Reissue, 2008]

Download Now

Hot Tuna - Hot Tuna (1970) [Japanese Reissue, 2008]

Hot Tuna - Hot Tuna (1970) [Japanese Reissue, 2008]
EAC Rip | FLAC: Tracks+Cue+Log | 416 Mb | MP3 CBR 320 kbps | 175 Mb | Scans | 24 Mb | Time: 01:09:39
Genre: Rock, Blues, Acoustic | Label: BMG Japan, Inc. | Cat.№: BVCM-35459

"Hot Tuna is the self-titled debut album by the blues-rock band Hot Tuna, released in 1970 as RCA Victor LSP-4353. It was recorded live at the New Orleans House in Berkeley, California in September 1969. It peaked at #30 on the Billboard 200 album chart. 2008 Japanese exclusive limited edition 15-track 24-Bit digitally remastered CD album, the debut longplayer from Jefferson Airplane's Jack Casady and Jorma Kaukonen, originally released in 1970, includes 5 bonus recordings, superbly presented in mini LP-style pasted card sleeve with Japanese/English lyric booklet + obi strip."



Track Listing

01. Hesitation Blues (05:10)
02. How Long Blues (03:59)
03. Uncle Sam Blues (04:57)
04. Don't You Leave Me Here (03:03)
05. Death Don't Have No Mercy (06:16)
06. Know You Rider (04:08)
07. Oh Lord, Search My Heart (03:53)
08. Winin' Boy Blues (05:33)
09. New Song (For The Morning) (05:03)
10. Mann's Fate (05:29)

Bonus tracks

11. Keep Your Lamps Trimmed And Burning (03:50)
12. Candy Man (03:37)
13. True Religion (05:25)
14. Belly Shadow (03:02)
15. Come Back Baby (06:08)

Produced by Al Schmitt

The Band

* Jorma Kaukonen - acoustic guitar, vocals
* Jack Casady - bass
* Will Scarlett - harmonica

Notes

Jefferson Family Original Album Paper Sleeve Collection

Exact Audio Copy V0.99 prebeta 4 from 23. January 2008

EAC extraction logfile from 1. October 2008, 11:04

Hot Tuna / Live at New Orleans House

Used drive : PIONEER DVD-RW DVR-112D Adapter: 0 ID: 1

Read mode : Secure
Utilize accurate stream : Yes
Defeat audio cache : Yes
Make use of C2 pointers : No

Read offset correction

: 48
Overread into Lead-In and Lead-Out : No
Fill up missing offset samples with silence : Yes
Delete leading and trailing silent blocks : No
Null samples used in CRC calculations : Yes
Used interface
: Installed external ASPI interface
Gap handling
: Appended to previous track

Used output format : Internal WAV Routines
Sample format : 44.100 Hz; 16 Bit; Stereo

TOC of the extracted CD Track | Start | Length | Start sector | End sector
1 | 0:00.00 | 5:10.02 | 0 | 23251 2 | 5:10.02 | 3:59.03 | 23252 | 41179 3 | 9:09.05 | 4:57.35 | 41180 | 63489 4 | 14:06.40 | 3:03.30 | 63490 | 77244 5 | 17:09.70 | 6:16.43 | 77245 | 105487 6 | 23:26.38 | 4:08.41 | 105488 | 124128 7 | 27:35.04 | 3:53.60 | 124129 | 141663 8 | 31:28.64 | 5:33.11 | 141664 | 166649 9 | 37:02.00 | 5:03.65 | 166650 | 189439
10 | 42:05.65 | 5:29.44 | 189440 | 214158
11 | 47:35.34 | 3:50.27 | 214159 | 231435
12 | 51:25.61 | 3:37.55 | 231436 | 247765
13 | 55:03.41 | 5:24.71 | 247766 | 272136
14 | 60:28.37 | 3:02.01 | 272137 | 285787
15 | 63:30.38 | 6:08.13 | 285788 | 313400

Track 1 Filename P:\Hot Tuna\Hot Tuna\01 - Hesitation Blues.wav Pre-gap length 0:00:02.00 Peak level 100.0 %
Track quality 100.0 %
Test CRC 090BD5DF
Copy CRC 090BD5DF
Track not present in AccurateRip database
Copy OK

Track 2 Filename P:\Hot Tuna\Hot Tuna\02 - How Long Blues.wav Pre-gap length 0:00:03.10 Peak level 100.0 %
Track quality 100.0 %
Test CRC D002CC47
Copy CRC D002CC47
Track not present in AccurateRip database
Copy OK

Track 3 Filename P:\Hot Tuna\Hot Tuna\03 - Uncle Sam Blues.wav Peak level 100.0 %
Track quality 100.0 %
Test CRC 0C6E5630
Copy CRC 0C6E5630
Track not present in AccurateRip database
Copy OK

Track 4 Filename P:\Hot Tuna\Hot Tuna\04 - Don't You Leave Me Here.wav Pre-gap length 0:00:01.48 Peak level 100.0 %
Track quality 100.0 %
Test CRC 49F073C3
Copy CRC 49F073C3
Track not present in AccurateRip database
Copy OK

Track 5 Filename P:\Hot Tuna\Hot Tuna\05 - Death Don't Have No Mercy.wav Pre-gap length 0:00:02.24 Peak level 100.0 %
Track quality 99.9 %
Test CRC A43CF6CE
Copy CRC A43CF6CE
Track not present in AccurateRip database
Copy OK

Track 6 Filename P:\Hot Tuna\Hot Tuna\06 - Know You Rider.wav Pre-gap length 0:00:02.25 Peak level 100.0 %
Track quality 100.0 %
Test CRC 39591FD2
Copy CRC 39591FD2
Track not present in AccurateRip database
Copy OK

Track 7 Filename P:\Hot Tuna\Hot Tuna\07 - Oh Lord, Search My Heart.wav Pre-gap length 0:00:02.02 Peak level 100.0 %
Track quality 100.0 %
Test CRC E4388BC1
Copy CRC E4388BC1
Track not present in AccurateRip database
Copy OK

Track 8 Filename P:\Hot Tuna\Hot Tuna\08 - Winin' Boy Blues.wav Pre-gap length 0:00:01.25 Peak level 100.0 %
Track quality 100.0 %
Test CRC 3BE6EAF1
Copy CRC 3BE6EAF1
Track not present in AccurateRip database
Copy OK

Track 9 Filename P:\Hot Tuna\Hot Tuna\09 - New Song (For The Morning).wav Pre-gap length 0:00:01.41 Peak level 100.0 %
Track quality 100.0 %
Test CRC 16B12DAD
Copy CRC 16B12DAD
Track not present in AccurateRip database
Copy OK

Track 10 Filename P:\Hot Tuna\Hot Tuna\10 - Mann's Fate.wav Pre-gap length 0:00:01.43 Peak level 100.0 %
Track quality 100.0 %
Test CRC 0DC5984F
Copy CRC 0DC5984F
Track not present in AccurateRip database
Copy OK

Track 11 Filename P:\Hot Tuna\Hot Tuna\11 - Keep Your Lamps Trimmed And Burning.wav Pre-gap length 0:00:03.23 Peak level 100.0 %
Track quality 100.0 %
Test CRC B8C2414E
Copy CRC B8C2414E
Track not present in AccurateRip database
Copy OK

Track 12 Filename P:\Hot Tuna\Hot Tuna\12 - Candy Man.wav Pre-gap length 0:00:01.43 Peak level 100.0 %
Track quality 100.0 %
Test CRC 711FE0FF
Copy CRC 711FE0FF
Track not present in AccurateRip database
Copy OK

Track 13 Filename P:\Hot Tuna\Hot Tuna\13 - True Religion.wav Pre-gap length 0:00:01.66 Peak level 100.0 %
Track quality 100.0 %
Test CRC E651E3FF
Copy CRC E651E3FF
Track not present in AccurateRip database
Copy OK

Track 14 Filename P:\Hot Tuna\Hot Tuna\14 - Belly Shadow.wav Pre-gap length 0:00:01.71 Peak level 100.0 %
Track quality 100.0 %
Test CRC 54882476
Copy CRC 54882476
Track not present in AccurateRip database
Copy OK

Track 15 Filename P:\Hot Tuna\Hot Tuna\15 - Come Back Baby.wav Pre-gap length 0:00:02.38 Peak level 100.0 %
Track quality 100.0 %
Test CRC B08B8E59
Copy CRC B08B8E59
Track not present in AccurateRip database
Copy OK

None of the tracks are present in the AccurateRip database

No errors occurred

End of status report

Many thanks to the original uploader: vmsn
DOWNLOAD LINKS
Buy Premium From My Links To Get Resumable Support & Max Speed & To Support Me


Links are Interchangeable - No Password - Single Extraction
Direct Download

Tags: Japanese, Reissue

Hot Tuna - Hot Tuna (1970) [Japanese Reissue, 2008] Download via Hotfile Rapidshare Fileserve Megaupload & FileSonic, Hot Tuna - Hot Tuna (1970) [Japanese Reissue, 2008] free torrent downloads included crack, serial, keygen.Hot Tuna - Hot Tuna (1970) [Japanese Reissue, 2008] Fast Download via Rapidshare Hotfile Fileserve Filesonic Megaupload, Hot Tuna - Hot Tuna (1970) [Japanese Reissue, 2008] Torrents and Emule Download or anything related.
Leave a Comment
Your Name:
E-Mail:
Add Comments:

Enter Code: