Pasadena Roof Orchestra - Licensed To Swing (2011)

Download Now

Pasadena Roof Orchestra - Licensed To Swing (2011)

Pasadena Roof Orchestra - Licensed To Swing (2011)
EAC Rip | FLAC (Img) + Cue + Log ~ 319 Mb | MP3 CBR320 ~ 146 Mb
Scans Included (JPG, 600 dpi) | RAR 5% Recovery
Early Jazz, Swing, Big Band | Pasadena Records #CDPRO 9

"The Pasadena Roof Orchestra (abbreviated to PRO) is a contemporary band from England that specialises in the jazz and swing genres of music of the 1920s and 1930s, although their full repertoire is considerably wider. The orchestra has existed since 1969, although the line-up has frequently changed. It has achieved success outside of the United Kingdom, most notably in Germany. The Pasadena Roof Orchestra was formed in Nov. 1969 by Johnny Arthy, a lover of 1920's jazz who sought to lead a dance-oriented jazz-influenced big band specializing in music from the 1923-37 period. The British band gained its name because Arthy liked the obscure song "Pasadena." The orchestra had its first gig in April 1970 and soon Arthy came across a windfall, 1, 500 original arrangements from the 1920's practically given away by an elderly lady whose father had been musical director of a dance band in the twenties..."

Official Website | Wiki | Discogs | All Music
***************

Pasadena Roof Orchestra - Licensed To Swing (2011)

Track List:

01. Youґre the top [03:42]
02. At the Jazz Band Ball [03:13]
03. Bel Ami [03:17]
04. No strings [03:11]
05. Futuristic rhythm [03:00]
06. Polka dot rag [02:55]
07. About a quater to nine [03:27]
08. I heard [02:26]
09. Without a certain thing [03:23]
10. Am Sonntag will meine Sьsse mit mir segeln gehn [02:37]
11. Jungle nights in Harlem [03:03]
12. Happy feet [02:57]
13. Singing in the rain [03:21]
14. A cheerful little earful [03:35]
15. Where the blue of the nicht (meets the gold of the day) [03:14]
16. Yes! We have no bananas [03:12]

Exact Audio Copy V1.0 beta 3 from 29. August 2011

EAC extraction logfile from 22. January 2013, 12:58

The Pasadena Roof Orchestra / Licensed to swing

Used drive : SAMSUNG DVD-ROM SD-616E Adapter: 3 ID: 0

Read mode : Secure
Utilize accurate stream : Yes
Defeat audio cache : Yes
Make use of C2 pointers : No

Read offset correction

: 12
Overread into Lead-In and Lead-Out : No
Fill up missing offset samples with silence : Yes
Delete leading and trailing silent blocks : No
Null samples used in CRC calculations : Yes
Used interface
: Native Win32 interface for Win NT & 2000

Used output format : Internal WAV Routines
Sample format : 44.100 Hz; 16 Bit; Stereo

TOC of the extracted CD Track | Start | Length | Start sector | End sector
1 | 0:00.00 | 3:41.02 | 0 | 16576 2 | 3:41.02 | 3:12.43 | 16577 | 31019 3 | 6:53.45 | 3:16.56 | 31020 | 45775 4 | 10:10.26 | 3:10.56 | 45776 | 60081 5 | 13:21.07 | 2:59.36 | 60082 | 73542 6 | 16:20.43 | 2:54.26 | 73543 | 86618 7 | 19:14.69 | 3:26.31 | 86619 | 102099 8 | 22:41.25 | 2:25.38 | 102100 | 113012 9 | 25:06.63 | 3:22.66 | 113013 | 128228
10 | 28:29.54 | 2:36.17 | 128229 | 139945
11 | 31:05.71 | 3:02.44 | 139946 | 153639
12 | 34:08.40 | 2:56.62 | 153640 | 166901
13 | 37:05.27 | 3:20.67 | 166902 | 181968
14 | 40:26.19 | 3:34.71 | 181969 | 198089
15 | 44:01.15 | 3:13.60 | 198090 | 212624
16 | 47:15.00 | 3:11.03 | 212625 | 226952

Range status and errors

Selected range Filename C:\Documents and Settings\Borya\Desktop\PROLiToSwi\The Pasadena Roof Orchestra - Licensed to swing.wav Peak level 96.2 %
Extraction speed 2.8 X
Range quality 100.0 %
Copy CRC B393B042
Copy OK

No errors occurred


AccurateRip summary

Track 1 not present in database
Track 2 not present in database
Track 3 not present in database
Track 4 not present in database
Track 5 not present in database
Track 6 not present in database
Track 7 not present in database
Track 8 not present in database
Track 9 not present in database
Track 10 not present in database
Track 11 not present in database
Track 12 not present in database
Track 13 not present in database
Track 14 not present in database
Track 15 not present in database
Track 16 not present in database

None of the tracks are present in the AccurateRip database

End of status report

==== Log checksum CE7B55F699B7308E98F009AED8596BA572E599A9D4DEC3BA340E854A6BE200C4 ====

--

Exact Audio Copy V1.0 beta 3 from 29. August 2011

EAC extraction logfile from 22. January 2013, 13:18

The Pasadena Roof Orchestra / Licensed to swing

Used drive : SAMSUNG DVD-ROM SD-616E Adapter: 3 ID: 0

Read mode : Secure
Utilize accurate stream : Yes
Defeat audio cache : Yes
Make use of C2 pointers : No

Read offset correction

: 12
Overread into Lead-In and Lead-Out : No
Fill up missing offset samples with silence : Yes
Delete leading and trailing silent blocks : No
Null samples used in CRC calculations : Yes
Used interface
: Native Win32 interface for Win NT & 2000

Used output format : User Defined Encoder
Selected bitrate : 768 kBit/s
Quality : High
Add ID3 tag : No
Command line compressor : C:\Program Files\Exact Audio Copy\FLAC\FLAC.EXE
Additional command line options : -6 -V -T "ARTIST=%artist%" -T "TITLE=%title%" -T "ALBUM=%albumtitle%" -T "DATE=%year%" -T "TRACKNUMBER=%tracknr%" -T "GENRE=%genre%" -T "COMMENT=%comment%" -T "BAND=%albuminterpret%" -T "ALBUMARTIST=%albuminterpret%" -T "COMPOSER=%composer%" %haslyrics%--tag-from-file=LYRICS="%lyricsfile%"%haslyrics% -T "DISCNUMBER=%cdnumber%" -T "TOTALDISCS=%totalcds%" -T "TOTALTRACKS=%numtracks%" %hascover%--picture="%coverfile%"%hascover% %source% -o %dest%

TOC of the extracted CD Track | Start | Length | Start sector | End sector
1 | 0:00.00 | 3:41.02 | 0 | 16576 2 | 3:41.02 | 3:12.43 | 16577 | 31019 3 | 6:53.45 | 3:16.56 | 31020 | 45775 4 | 10:10.26 | 3:10.56 | 45776 | 60081 5 | 13:21.07 | 2:59.36 | 60082 | 73542 6 | 16:20.43 | 2:54.26 | 73543 | 86618 7 | 19:14.69 | 3:26.31 | 86619 | 102099 8 | 22:41.25 | 2:25.38 | 102100 | 113012 9 | 25:06.63 | 3:22.66 | 113013 | 128228
10 | 28:29.54 | 2:36.17 | 128229 | 139945
11 | 31:05.71 | 3:02.44 | 139946 | 153639
12 | 34:08.40 | 2:56.62 | 153640 | 166901
13 | 37:05.27 | 3:20.67 | 166902 | 181968
14 | 40:26.19 | 3:34.71 | 181969 | 198089
15 | 44:01.15 | 3:13.60 | 198090 | 212624
16 | 47:15.00 | 3:11.03 | 212625 | 226952

Range status and errors

Selected range Filename C:\Documents and Settings\Borya\Desktop\PROLiToSwi\The Pasadena Roof Orchestra - Licensed to swing.wav Peak level 96.2 %
Extraction speed 2.9 X
Range quality 100.0 %
Copy CRC B393B042
Copy OK

No errors occurred


AccurateRip summary

Track 1 not present in database
Track 2 not present in database
Track 3 not present in database
Track 4 not present in database
Track 5 not present in database
Track 6 not present in database
Track 7 not present in database
Track 8 not present in database
Track 9 not present in database
Track 10 not present in database
Track 11 not present in database
Track 12 not present in database
Track 13 not present in database
Track 14 not present in database
Track 15 not present in database
Track 16 not present in database

None of the tracks are present in the AccurateRip database

End of status report

==== Log checksum 87930720DA0A91A7B603D8311F3345495172DCF7B574FE1F077F59FE10B1FBAB ====

foobar2000 1.2.6 / Dynamic Range Meter 1.1.1
log date: 2015-06-06 22:43:29

------
Analyzed: The Pasadena Roof Orchestra / Licensed to swing
------

DR Peak RMS Duration Track
------
DR11 -0.64 dB -13.57 dB 3:41 01-Youґre the top
DR11 -0.98 dB -13.83 dB 3:13 02-At the Jazz Band Ball
DR11 -0.68 dB -13.62 dB 3:17 03-Bel Ami
DR12 -0.63 dB -13.80 dB 3:11 04-No strings
DR13 -0.66 dB -15.15 dB 2:59 05-Futuristic rhythm
DR12 -0.66 dB -13.76 dB 2:54 06-Polka dot rag
DR10 -0.56 dB -12.55 dB 3:26 07-About a quater to nine
DR12 -0.66 dB -13.52 dB 2:26 08-I heard
DR12 -0.37 dB -14.58 dB 3:23 09-Without a certain thing
DR12 -1.18 dB -14.62 dB 2:36 10-Am Sonntag will meine Sьsse mit mir segeln gehn
DR11 -0.67 dB -12.81 dB 3:03 11-Jungle nights in Harlem
DR12 -0.64 dB -13.98 dB 2:57 12-Happy feet
DR11 -0.65 dB -12.96 dB 3:21 13-Singing in the rain
DR12 -0.66 dB -13.92 dB 3:35 14-A cheerful little earful
DR12 -0.33 dB -15.09 dB 3:14 15-Where the blue of the nicht (meets the gold of the day)
DR12 -0.65 dB -14.37 dB 3:11 16-Yes! We have no bananas
------

Number of tracks: 16
Official DR value: DR12

Samplerate: 44100 Hz
Channels: 2
Bits per sample: 16
Bitrate: 777 kbps
Codec: FLAC

[CUETools log; Date: 06.06.2015 22:43:10; Version: 2.1.5]
[CTDB TOCID: nf0H51.D1z8YD2gyjns68O6vr3c-] found.
Track | CTDB Status
1 | (3/3) Accurately ripped
2 | (3/3) Accurately ripped
3 | (3/3) Accurately ripped
4 | (3/3) Accurately ripped
5 | (3/3) Accurately ripped
6 | (3/3) Accurately ripped
7 | (3/3) Accurately ripped
8 | (3/3) Accurately ripped
9 | (3/3) Accurately ripped
10 | (3/3) Accurately ripped
11 | (3/3) Accurately ripped
12 | (3/3) Accurately ripped
13 | (3/3) Accurately ripped
14 | (3/3) Accurately ripped
15 | (3/3) Accurately ripped
16 | (3/3) Accurately ripped
[AccurateRip ID: 001d8ebc-01608fb0-c90bd210] found.
Track [ CRC | V2 ] Status
01 [33c2140d|5bcd7187] (2+5/7) Accurately ripped
02 [de650e18|282f3dae] (2+5/7) Accurately ripped
03 [433e665c|e248a8b2] (2+5/7) Accurately ripped
04 c5e2aaf|81a1e4b8 (2+3/7) Accurately ripped
05 [217881f7|cd1039de] (2+3/7) Accurately ripped
06 [1f256fb7|f71655c6] (2+5/7) Accurately ripped
07 [5f286c2b|063059d3] (2+5/7) Accurately ripped
08 [4f1de3fa|0c3442a3] (2+5/7) Accurately ripped
09 [cb634fc5|214e82aa] (2+5/7) Accurately ripped
10 [27efb7b8|248d6f2c] (2+5/7) Accurately ripped
11 [6b5777dd|ff5d8e63] (2+5/7) Accurately ripped
12 [f7dc9950|fdd4624f] (2+5/7) Accurately ripped
13 [de49da47|e8c50f41] (2+5/7) Accurately ripped
14 [8062ff70|241ba8af] (2+5/7) Accurately ripped
15 [d6bfabc3|5f3a7a20] (2+5/7) Accurately ripped
16 [909f277b|201feafa] (2+5/7) Accurately ripped

Track Peak [ CRC32 ] [W/O NULL] [ LOG ]
-- 96,2 393B042 [CDF3521F]
01 92,8 [00609E6E] [02F1F23E] 393B042
02 89,3 [CAB17E06] [C91A808E] 393B042
03 92,4 [6E795EEB] [4805C85A]
04 93,0 [06CBBB61] 6724BAF
05 92,7 [5393808F] [DBA10F3B]
06 92,6 [87E4A3A0] [462A20DE]
07 93,7 [92DB00F0] [17C77C04]
08 92,6 [2CC1959D] [3A79EFC1]
09 95,7 [71EB6982] A018E66
10 87,2 [AE9731FC] [D97D1D2D]
11 92,5 [6BF65C80] [AAF88578]
12 92,8 [E1485138] [178DC538]
13 92,8 [952180EF] [8019742A]
14 92,7 [7B63E4AA] [AA3CC56C]
15 96,2 [57AE6D24] [3EF18ED4]
16 92,8 [FC42DE07] [24545E57]

Pasadena Roof Orchestra - Licensed To Swing (2011)


DOWNLOAD LINKS
Buy Premium From My Links To Get Resumable Support & Max Speed & To Support Me


Links are Interchangeable - No Password - Single Extraction
Direct Download

Tags: Pasadena, Orchestra, Licensed

Pasadena Roof Orchestra - Licensed To Swing (2011) Download via Hotfile Rapidshare Fileserve Megaupload & FileSonic, Pasadena Roof Orchestra - Licensed To Swing (2011) free torrent downloads included crack, serial, keygen.Pasadena Roof Orchestra - Licensed To Swing (2011) Fast Download via Rapidshare Hotfile Fileserve Filesonic Megaupload, Pasadena Roof Orchestra - Licensed To Swing (2011) Torrents and Emule Download or anything related.
Leave a Comment
Your Name:
E-Mail:
Add Comments:

Enter Code: