George Thorogood and the Destroyers - One Bourbon, One Scotch, One Beer: Essential Recordings (HDCD 2009) RE-UP

Download Now

George Thorogood and the Destroyers - One Bourbon, One Scotch, One Beer: Essential Recordings (HDCD 2009) RE-UP

George Thorogood and the Destroyers - One Burbon, One Scotch, One Beer (2009)
EAC-FLAC Image with CUE & LOG - 326 MB | Full Scans | MP3 CBR 320 Kbps - 114 MB
HDCD | Blues-Rock / Boogie Rock | 43:40 minutes | Label: Rounder Records | Cat. # 613271-2

George Thorogood is a blues rock vocalist/guitarist from Wilmington, Delaware, known for his hit song "Bad to the Bone" as well as for covers of blues standards such as Hank Williams' "Move It On Over" and John Lee Hooker's "House Rent Boogie/One Bourbon, One Scotch, One Beer". Another favorite is a cover of Bo Diddley's "Who Do You Love?" George Thorogood and the Delaware Destroyers have released 16 studio albums, including two that were certified Platinum. and six that have been certified Gold. The band has sold 15 million albums worldwide. The band is credited with the early success of Rounder Records.
"allmusic.com says: George Thorogood hasn't changed his sound one iota over the years, and his Destroyers (bass player Billy Blough and drummer Jeff Simon) have always given him a driving, simple backdrop for his rough-hewed vocals and spiky guitar playing. Not changing his approach (not that he should), though, means that his early records are still probably the ones to look for, and since this set takes key tracks (including his fun covers of John Lee Hooker's "One Bourbon, One Scotch, One Beer" and Elmore James' "The Sky Is Crying") from his first two albums, 1977's George Thorogood & the Destroyers and 1978's Move It on Over, it makes a nice little sampler of where it all started -- and then stayed."


Tracks:

01. One Burbon, One Scotch, One Beer
02. Move It On Over
03. House Of Blue Lights
04. The Sky Is Crying
05. Ride On Josephine
06. Cocaine Blues
07. Madison Blues
08. Who Do You Love
09. Can't Stop Lovin'
10. Night Time

Compiled by Scott Billington.
Remastered by Matt Azevedo at M Works, Cambridge, Massachusetts.

Thanks to y-soft!

More information @ Wikipedia

Exact Audio Copy V0.99 prebeta 4 from 23. January 2008

Отчёт EAC об извлечении, выполненном 7. июня 2010, 16:50

George Thorogood and the Destroyers / One Burbon, One Scotch, One Beer

Дисковод: Optiarc DVD RW AD-7200A Adapter: 0 ID: 1

Режим чтения : Достоверность
Использование точного потока : Да
Отключение кэша аудио : Да
Использование указателей C2 : Нет

Коррекция смещения при чтении : 48
Способность читать области Lead-in и Lead-out : Нет
Заполнение пропущенных сэмплов тишиной : Да
Удаление блоков с тишиной в начале и конце : Нет
При вычислениях CRC использовались нулевые сэмплы : Да
Интерфейс : Встроенный Win32-интерфейс для Win NT/2000

Выходной формат : Пользовательский кодировщик
Выбранный битрейт : 128 kBit/s
Качество : Высокий
Добавление ID3-тэга : Нет
Утилита сжатия : C:\Program Files\Exact Audio Copy\wavpack.exe
Дополнительные параметры : -w "Artist=%a" -w "Title=%t" -w "Album=%g" -w "Year=%y" -w "Track=%n" -w "Genre=%m" -h %s %d

TOC извлечённого CD Трек | Старт | Длительность | Начальный сектор | Конечный сектор

1 | 0:00.00 | 8:29.45 | 0 | 38219
2 | 8:29.45 | 4:20.32 | 38220 | 57751
3 | 12:50.02 | 3:04.74 | 57752 | 71625
4 | 15:55.01 | 5:16.20 | 71626 | 95345
5 | 21:11.21 | 4:24.07 | 95346 | 115152
6 | 25:35.28 | 2:55.64 | 115153 | 128341
7 | 28:31.17 | 4:30.09 | 128342 | 148600
8 | 33:01.26 | 4:21.52 | 148601 | 168227
9 | 37:23.03 | 3:08.27 | 168228 | 182354
10 | 40:31.30 | 3:07.69 | 182355 | 196448

Характеристики диапазона извлечения и сообщения об ошибках

Выбранный диапазон Имя файла Y:\Releases\George Thorogood and the Destroyers\One Burbon, One Scotch, One Beer (2009)\George Thorogood and the Destroyers - One Burbon, One Scotch, One Beer (2009)\George Thorogood and the Destroyers - One Burbon, One Scotch, One Beer.wav Пиковый уровень 98.8 %
Качество диапазона 99.9 %
CRC теста 788FB7C8
CRC копии 788FB7C8
Копирование... OK

Ошибок не произошло


AccurateRip: сводка

Трек 1 нет в базе данных
Трек 2 нет в базе данных
Трек 3 нет в базе данных
Трек 4 нет в базе данных
Трек 5 нет в базе данных
Трек 6 нет в базе данных
Трек 7 нет в базе данных
Трек 8 нет в базе данных
Трек 9 нет в базе данных
Трек 10 нет в базе данных

Ни одного трека нет в базе AccurateRip

Конец отчёта

----------

HDCD: peak extend: none, transient filter: none, gain: none
[AccurateRip ID: 00125798-008dbf78-850a3b0a] found.
Track [ CRC ] Status
01 [82464ac9] (2/2) Accurately ripped
02 [138ef447] (2/2) Accurately ripped
03 [0a9cad67] (2/2) Accurately ripped
04 [41ed9720] (2/2) Accurately ripped
05 [7c3aac57] (2/2) Accurately ripped
06 [7540bf39] (0/0) No match
07 [67e506bf] (2/2) Accurately ripped
08 [418edd30] (2/2) Accurately ripped
09 [e73c2f33] (2/2) Accurately ripped
10 [de909e63] (2/2) Accurately ripped

Track Peak [ CRC32 ] [W/O NULL] [ LOG ]
-- 98,8 [788FB7C8] [EADBFF94] CRC32
01 98,8 [89B292FA] [23E9855E]
02 98,8 [51778E75] [4E223676]
03 98,8 [F93A1E3D] [6B081FFA]
04 98,8 6078BC6 [CD7FEA6C]
05 98,8 [3872E19D] [A8A42548]
06 96,0 [55C2E7EE] [56B5E210]
07 98,8 FF0AB1F [7D5EE624]
08 98,8 [EC344CF6] [A6766483]
09 98,8 [AB560034] [DE792FC2]
10 98,8 6E01EEB [16751952]
DOWNLOAD LINKS
Buy Premium From My Links To Get Resumable Support & Max Speed & To Support Me


Links are Interchangeable - No Password - Single Extraction
Direct Download

Tags: George, Thorogood, Destroyers, Bourbon, Scotch, Essential, Recordings

George Thorogood and the Destroyers - One Bourbon, One Scotch, One Beer: Essential Recordings (HDCD 2009) RE-UP Download via Hotfile Rapidshare Fileserve Megaupload & FileSonic, George Thorogood and the Destroyers - One Bourbon, One Scotch, One Beer: Essential Recordings (HDCD 2009) RE-UP free torrent downloads included crack, serial, keygen.George Thorogood and the Destroyers - One Bourbon, One Scotch, One Beer: Essential Recordings (HDCD 2009) RE-UP Fast Download via Rapidshare Hotfile Fileserve Filesonic Megaupload, George Thorogood and the Destroyers - One Bourbon, One Scotch, One Beer: Essential Recordings (HDCD 2009) RE-UP Torrents and Emule Download or anything related.
Leave a Comment
Your Name:
E-Mail:
Add Comments:

Enter Code: